  0
SECTION
  2
HEADER
  9
$ACADVER
  1
AC1018
  9
$ACADMAINTVER
 70
   104
  9
$DWGCODEPAGE
  3
ANSI_1252
  9
$LASTSAVEDBY
  1
Yvonne
  9
$INSBASE
 10
0.0
 20
0.0
 30
0.0
  9
$EXTMIN
 10
3599.240853781174
 20
1498.4212292722
 30
0.0
  9
$EXTMAX
 10
3698.441879727624
 20
1600.221229272199
 30
0.0
  9
$LIMMIN
 10
0.0
 20
0.0
  9
$LIMMAX
 10
420.0
 20
297.0
  9
$ORTHOMODE
 70
     0
  9
$REGENMODE
 70
     1
  9
$FILLMODE
 70
     1
  9
$QTEXTMODE
 70
     0
  9
$MIRRTEXT
 70
     0
  9
$LTSCALE
 40
1.0
  9
$ATTMODE
 70
     1
  9
$TEXTSIZE
 40
2.5
  9
$TRACEWID
 40
1.0
  9
$TEXTSTYLE
  7
Standard
  9
$CLAYER
  8
0
  9
$CELTYPE
  6
ByLayer
  9
$CECOLOR
 62
   256
  9
$CELTSCALE
 40
1.0
  9
$DISPSILH
 70
     0
  9
$DIMSCALE
 40
1.0
  9
$DIMASZ
 40
2.5
  9
$DIMEXO
 40
0.625
  9
$DIMDLI
 40
3.75
  9
$DIMRND
 40
0.0
  9
$DIMDLE
 40
0.0
  9
$DIMEXE
 40
1.25
  9
$DIMTP
 40
0.0
  9
$DIMTM
 40
0.0
  9
$DIMTXT
 40
2.5
  9
$DIMCEN
 40
2.5
  9
$DIMTSZ
 40
0.0
  9
$DIMTOL
 70
     0
  9
$DIMLIM
 70
     0
  9
$DIMTIH
 70
     0
  9
$DIMTOH
 70
     0
  9
$DIMSE1
 70
     0
  9
$DIMSE2
 70
     0
  9
$DIMTAD
 70
     1
  9
$DIMZIN
 70
     8
  9
$DIMBLK
  1

  9
$DIMASO
 70
     1
  9
$DIMSHO
 70
     1
  9
$DIMPOST
  1

  9
$DIMAPOST
  1

  9
$DIMALT
 70
     0
  9
$DIMALTD
 70
     3
  9
$DIMALTF
 40
0.03937007874016
  9
$DIMLFAC
 40
1.0
  9
$DIMTOFL
 70
     1
  9
$DIMTVP
 40
0.0
  9
$DIMTIX
 70
     0
  9
$DIMSOXD
 70
     0
  9
$DIMSAH
 70
     0
  9
$DIMBLK1
  1

  9
$DIMBLK2
  1

  9
$DIMSTYLE
  2
ISO-25
  9
$DIMCLRD
 70
     0
  9
$DIMCLRE
 70
     0
  9
$DIMCLRT
 70
     0
  9
$DIMTFAC
 40
1.0
  9
$DIMGAP
 40
0.625
  9
$DIMJUST
 70
     0
  9
$DIMSD1
 70
     0
  9
$DIMSD2
 70
     0
  9
$DIMTOLJ
 70
     0
  9
$DIMTZIN
 70
     8
  9
$DIMALTZ
 70
     0
  9
$DIMALTTZ
 70
     0
  9
$DIMUPT
 70
     0
  9
$DIMDEC
 70
     2
  9
$DIMTDEC
 70
     2
  9
$DIMALTU
 70
     2
  9
$DIMALTTD
 70
     3
  9
$DIMTXSTY
  7
Standard
  9
$DIMAUNIT
 70
     0
  9
$DIMADEC
 70
     0
  9
$DIMALTRND
 40
0.0
  9
$DIMAZIN
 70
     0
  9
$DIMDSEP
 70
    44
  9
$DIMATFIT
 70
     3
  9
$DIMFRAC
 70
     0
  9
$DIMLDRBLK
  1

  9
$DIMLUNIT
 70
     2
  9
$DIMLWD
 70
    -2
  9
$DIMLWE
 70
    -2
  9
$DIMTMOVE
 70
     0
  9
$LUNITS
 70
     2
  9
$LUPREC
 70
     4
  9
$SKETCHINC
 40
1.0
  9
$FILLETRAD
 40
0.0
  9
$AUNITS
 70
     0
  9
$AUPREC
 70
     0
  9
$MENU
  1
.
  9
$ELEVATION
 40
0.0
  9
$PELEVATION
 40
0.0
  9
$THICKNESS
 40
0.0
  9
$LIMCHECK
 70
     0
  9
$CHAMFERA
 40
0.0
  9
$CHAMFERB
 40
0.0
  9
$CHAMFERC
 40
0.0
  9
$CHAMFERD
 40
0.0
  9
$SKPOLY
 70
     0
  9
$TDCREATE
 40
2458156.450219907
  9
$TDUCREATE
 40
2458156.700219908
  9
$TDUPDATE
 40
2458260.741400463
  9
$TDUUPDATE
 40
2458260.949733796
  9
$TDINDWG
 40
0.0549305556
  9
$TDUSRTIMER
 40
0.0549305556
  9
$USRTIMER
 70
     1
  9
$ANGBASE
 50
0.0
  9
$ANGDIR
 70
     0
  9
$PDMODE
 70
     0
  9
$PDSIZE
 40
0.0
  9
$PLINEWID
 40
0.0
  9
$SPLFRAME
 70
     0
  9
$SPLINETYPE
 70
     6
  9
$SPLINESEGS
 70
     8
  9
$HANDSEED
  5
5B9
  9
$SURFTAB1
 70
     6
  9
$SURFTAB2
 70
     6
  9
$SURFTYPE
 70
     6
  9
$SURFU
 70
     6
  9
$SURFV
 70
     6
  9
$UCSBASE
  2

  9
$UCSNAME
  2

  9
$UCSORG
 10
0.0
 20
0.0
 30
0.0
  9
$UCSXDIR
 10
1.0
 20
0.0
 30
0.0
  9
$UCSYDIR
 10
0.0
 20
1.0
 30
0.0
  9
$UCSORTHOREF
  2

  9
$UCSORTHOVIEW
 70
     0
  9
$UCSORGTOP
 10
0.0
 20
0.0
 30
0.0
  9
$UCSORGBOTTOM
 10
0.0
 20
0.0
 30
0.0
  9
$UCSORGLEFT
 10
0.0
 20
0.0
 30
0.0
  9
$UCSORGRIGHT
 10
0.0
 20
0.0
 30
0.0
  9
$UCSORGFRONT
 10
0.0
 20
0.0
 30
0.0
  9
$UCSORGBACK
 10
0.0
 20
0.0
 30
0.0
  9
$PUCSBASE
  2

  9
$PUCSNAME
  2

  9
$PUCSORG
 10
0.0
 20
0.0
 30
0.0
  9
$PUCSXDIR
 10
1.0
 20
0.0
 30
0.0
  9
$PUCSYDIR
 10
0.0
 20
1.0
 30
0.0
  9
$PUCSORTHOREF
  2

  9
$PUCSORTHOVIEW
 70
     0
  9
$PUCSORGTOP
 10
0.0
 20
0.0
 30
0.0
  9
$PUCSORGBOTTOM
 10
0.0
 20
0.0
 30
0.0
  9
$PUCSORGLEFT
 10
0.0
 20
0.0
 30
0.0
  9
$PUCSORGRIGHT
 10
0.0
 20
0.0
 30
0.0
  9
$PUCSORGFRONT
 10
0.0
 20
0.0
 30
0.0
  9
$PUCSORGBACK
 10
0.0
 20
0.0
 30
0.0
  9
$USERI1
 70
     0
  9
$USERI2
 70
     0
  9
$USERI3
 70
     0
  9
$USERI4
 70
     0
  9
$USERI5
 70
     0
  9
$USERR1
 40
0.0
  9
$USERR2
 40
0.0
  9
$USERR3
 40
0.0
  9
$USERR4
 40
0.0
  9
$USERR5
 40
0.0
  9
$WORLDVIEW
 70
     1
  9
$SHADEDGE
 70
     3
  9
$SHADEDIF
 70
    70
  9
$TILEMODE
 70
     1
  9
$MAXACTVP
 70
    64
  9
$PINSBASE
 10
0.0
 20
0.0
 30
0.0
  9
$PLIMCHECK
 70
     0
  9
$PEXTMIN
 10
0.0
 20
0.0
 30
0.0
  9
$PEXTMAX
 10
0.0
 20
0.0
 30
0.0
  9
$PLIMMIN
 10
0.0
 20
0.0
  9
$PLIMMAX
 10
12.0
 20
9.0
  9
$UNITMODE
 70
     0
  9
$VISRETAIN
 70
     1
  9
$PLINEGEN
 70
     0
  9
$PSLTSCALE
 70
     1
  9
$TREEDEPTH
 70
  3020
  9
$CMLSTYLE
  2
Standard
  9
$CMLJUST
 70
     0
  9
$CMLSCALE
 40
20.0
  9
$PROXYGRAPHICS
 70
     1
  9
$MEASUREMENT
 70
     1
  9
$CELWEIGHT
370
    -1
  9
$ENDCAPS
280
     0
  9
$JOINSTYLE
280
     0
  9
$LWDISPLAY
290
     0
  9
$INSUNITS
 70
     4
  9
$HYPERLINKBASE
  1

  9
$STYLESHEET
  1

  9
$XEDIT
290
     1
  9
$CEPSNTYPE
380
     0
  9
$PSTYLEMODE
290
     1
  9
$FINGERPRINTGUID
  2
{37E11E7C-EF2A-1141-8153-70B86220A9FC}
  9
$VERSIONGUID
  2
{80AE305A-D69C-C045-A74F-41DB8BAB83F9}
  9
$EXTNAMES
290
     1
  9
$PSVPSCALE
 40
0.0
  9
$OLESTARTUP
290
     0
  9
$SORTENTS
280
   127
  9
$INDEXCTL
280
     0
  9
$HIDETEXT
280
     1
  9
$XCLIPFRAME
290
     0
  9
$HALOGAP
280
     0
  9
$OBSCOLOR
 70
   257
  9
$OBSLTYPE
280
     0
  9
$INTERSECTIONDISPLAY
280
     0
  9
$INTERSECTIONCOLOR
 70
   257
  9
$DIMASSOC
280
     2
  9
$PROJECTNAME
  1

  0
ENDSEC
  0
SECTION
  2
CLASSES
  0
CLASS
  1
ACDBDICTIONARYWDFLT
  2
AcDbDictionaryWithDefault
  3
ObjectDBX Classes
 90
        0
 91
        1
280
     0
281
     0
  0
CLASS
  1
DICTIONARYVAR
  2
AcDbDictionaryVar
  3
ObjectDBX Classes
 90
        0
 91
       21
280
     0
281
     0
  0
CLASS
  1
TABLESTYLE
  2
AcDbTableStyle
  3
ObjectDBX Classes
 90
     4095
 91
        1
280
     0
281
     0
  0
CLASS
  1
MATERIAL
  2
AcDbMaterial
  3
ObjectDBX Classes
 90
     1153
 91
        3
280
     0
281
     0
  0
CLASS
  1
VISUALSTYLE
  2
AcDbVisualStyle
  3
ObjectDBX Classes
 90
     4095
 91
       24
280
     0
281
     0
  0
CLASS
  1
SCALE
  2
AcDbScale
  3
ObjectDBX Classes
 90
     1153
 91
       17
280
     0
281
     0
  0
CLASS
  1
MLEADERSTYLE
  2
AcDbMLeaderStyle
  3
ACDB_MLEADERSTYLE_CLASS
 90
     4095
 91
        2
280
     0
281
     0
  0
CLASS
  1
CELLSTYLEMAP
  2
AcDbCellStyleMap
  3
ObjectDBX Classes
 90
     1152
 91
        2
280
     0
281
     0
  0
CLASS
  1
EXACXREFPANELOBJECT
  2
ExAcXREFPanelObject
  3
EXAC_ESW
 90
     1025
 91
        0
280
     0
281
     0
  0
CLASS
  1
NPOCOLLECTION
  2
AcDbImpNonPersistentObjectsCollection
  3
ObjectDBX Classes
 90
     1153
 91
        0
280
     0
281
     0
  0
CLASS
  1
LAYER_INDEX
  2
AcDbLayerIndex
  3
ObjectDBX Classes
 90
        0
 91
        0
280
     0
281
     0
  0
CLASS
  1
SPATIAL_INDEX
  2
AcDbSpatialIndex
  3
ObjectDBX Classes
 90
        0
 91
        0
280
     0
281
     0
  0
CLASS
  1
IDBUFFER
  2
AcDbIdBuffer
  3
ObjectDBX Classes
 90
        0
 91
        0
280
     0
281
     0
  0
CLASS
  1
ACDBSECTIONVIEWSTYLE
  2
AcDbSectionViewStyle
  3
ObjectDBX Classes
 90
     1025
 91
        1
280
     0
281
     0
  0
CLASS
  1
ACDBDETAILVIEWSTYLE
  2
AcDbDetailViewStyle
  3
ObjectDBX Classes
 90
     1025
 91
        1
280
     0
281
     0
  0
CLASS
  1
ACDBASSOCNETWORK
  2
AcDbAssocNetwork
  3
ObjectDBX Classes
 90
     1025
 91
        2
280
     0
281
     0
  0
CLASS
  1
ACDBASSOC2DCONSTRAINTGROUP
  2
AcDbAssoc2dConstraintGroup
  3
ObjectDBX Classes
 90
     1025
 91
        1
280
     0
281
     0
  0
CLASS
  1
ACDBASSOCGEOMDEPENDENCY
  2
AcDbAssocGeomDependency
  3
ObjectDBX Classes
 90
     1025
 91
       41
280
     0
281
     0
  0
CLASS
  1
ACDBASSOCVARIABLE
  2
AcDbAssocVariable
  3
ObjectDBX Classes
 90
     1025
 91
       43
280
     0
281
     0
  0
CLASS
  1
ACDBASSOCVALUEDEPENDENCY
  2
AcDbAssocValueDependency
  3
ObjectDBX Classes
 90
     1025
 91
       60
280
     0
281
     0
  0
CLASS
  1
ACDBASSOCDEPENDENCY
  2
AcDbAssocDependency
  3
ObjectDBX Classes
 90
     1025
 91
       40
280
     0
281
     0
  0
CLASS
  1
ASSOCDIMDEPENDENCYBODY
  2
AcDbAssocDimDependencyBody
  3
ObjectDBX Classes
 90
     1025
 91
       40
280
     0
281
     0
  0
ENDSEC
  0
SECTION
  2
TABLES
  0
TABLE
  2
VPORT
  5
8
330
0
100
AcDbSymbolTable
 70
     1
  0
VPORT
  5
EA
330
8
100
AcDbSymbolTableRecord
100
AcDbViewportTableRecord
  2
*Active
 70
     0
 10
0.0
 20
0.0
 11
1.0
 21
1.0
 12
3642.672091813004
 22
1533.190488783246
 13
0.0
 23
0.0
 14
10.0
 24
10.0
 15
10.0
 25
10.0
 16
0.0
 26
0.0
 36
1.0
 17
0.0
 27
0.0
 37
0.0
 40
190.266583591412
 41
2.254152823920265
 42
50.0
 43
0.0
 44
0.0
 50
0.0
 51
0.0
 71
     0
 72
  1000
 73
     1
 74
     3
 75
     0
 76
     1
 77
     0
 78
     0
281
     0
 65
     1
110
0.0
120
0.0
130
0.0
111
1.0
121
0.0
131
0.0
112
0.0
122
1.0
132
0.0
 79
     0
146
0.0
1001
ACAD_NAV_VCDISPLAY
1070
     3
  0
ENDTAB
  0
TABLE
  2
LTYPE
  5
5
330
0
100
AcDbSymbolTable
 70
     1
  0
LTYPE
  5
14
330
5
100
AcDbSymbolTableRecord
100
AcDbLinetypeTableRecord
  2
ByBlock
 70
     0
  3

 72
    65
 73
     0
 40
0.0
  0
LTYPE
  5
15
330
5
100
AcDbSymbolTableRecord
100
AcDbLinetypeTableRecord
  2
ByLayer
 70
     0
  3

 72
    65
 73
     0
 40
0.0
  0
LTYPE
  5
16
330
5
100
AcDbSymbolTableRecord
100
AcDbLinetypeTableRecord
  2
Continuous
 70
     0
  3
Solid line
 72
    65
 73
     0
 40
0.0
  0
ENDTAB
  0
TABLE
  2
LAYER
  5
2
102
{ACAD_XDICTIONARY
360
1FF
102
}
330
0
100
AcDbSymbolTable
 70
     2
  0
LAYER
  5
10
102
{ACAD_XDICTIONARY
360
13C
102
}
330
2
100
AcDbSymbolTableRecord
100
AcDbLayerTableRecord
  2
0
 70
     0
 62
     7
  6
Continuous
370
    -3
390
F
  0
LAYER
  5
341
330
2
100
AcDbSymbolTableRecord
100
AcDbLayerTableRecord
  2
ADSK_CONSTRAINTS
 70
     0
 62
     7
  6
Continuous
370
    -3
390
F
  0
ENDTAB
  0
TABLE
  2
STYLE
  5
3
330
0
100
AcDbSymbolTable
 70
     3
  0
STYLE
  5
11
330
3
100
AcDbSymbolTableRecord
100
AcDbTextStyleTableRecord
  2
Standard
 70
     0
 40
0.0
 41
1.0
 50
0.0
 71
     0
 42
2.5
  3
arial.ttf
  4

1001
ACAD
1000
Arial
1071
       34
  0
STYLE
  5
132
330
3
100
AcDbSymbolTableRecord
100
AcDbTextStyleTableRecord
  2
Anotativo
 70
     0
 40
0.0
 41
1.0
 50
0.0
 71
     0
 42
2.5
  3
arial.ttf
  4

1001
AcadAnnotative
1000
AnnotativeData
1002
{
1070
     1
1070
     1
1002
}
1001
ACAD
1000
Arial
1071
       34
  0
ENDTAB
  0
TABLE
  2
VIEW
  5
6
330
0
100
AcDbSymbolTable
 70
     0
  0
ENDTAB
  0
TABLE
  2
UCS
  5
7
330
0
100
AcDbSymbolTable
 70
     0
  0
ENDTAB
  0
TABLE
  2
APPID
  5
9
330
0
100
AcDbSymbolTable
 70
    12
  0
APPID
  5
12
330
9
100
AcDbSymbolTableRecord
100
AcDbRegAppTableRecord
  2
ACAD
 70
     0
  0
APPID
  5
9E
330
9
100
AcDbSymbolTableRecord
100
AcDbRegAppTableRecord
  2
ACAD_PSEXT
 70
     0
  0
APPID
  5
133
330
9
100
AcDbSymbolTableRecord
100
AcDbRegAppTableRecord
  2
AcadAnnoPO
 70
     0
  0
APPID
  5
134
330
9
100
AcDbSymbolTableRecord
100
AcDbRegAppTableRecord
  2
AcadAnnotative
 70
     0
  0
APPID
  5
135
330
9
100
AcDbSymbolTableRecord
100
AcDbRegAppTableRecord
  2
ACAD_DSTYLE_DIMJAG
 70
     0
  0
APPID
  5
136
330
9
100
AcDbSymbolTableRecord
100
AcDbRegAppTableRecord
  2
ACAD_DSTYLE_DIMTALN
 70
     0
  0
APPID
  5
165
330
9
100
AcDbSymbolTableRecord
100
AcDbRegAppTableRecord
  2
ACAD_MLEADERVER
 70
     0
  0
APPID
  5
217
330
9
100
AcDbSymbolTableRecord
100
AcDbRegAppTableRecord
  2
ACAD_NAV_VCDISPLAY
 70
     0
  0
APPID
  5
276
330
9
100
AcDbSymbolTableRecord
100
AcDbRegAppTableRecord
  2
ACAD_EXEMPT_FROM_CAD_STANDARDS
 70
     0
  0
APPID
  5
34A
330
9
100
AcDbSymbolTableRecord
100
AcDbRegAppTableRecord
  2
ACAD_DSTYLE_DIMINSPECT
 70
     0
  0
APPID
  5
34B
330
9
100
AcDbSymbolTableRecord
100
AcDbRegAppTableRecord
  2
ACAD_DSTYLE_DIMJAG_POSITION
 70
     0
  0
APPID
  5
34D
330
9
100
AcDbSymbolTableRecord
100
AcDbRegAppTableRecord
  2
AcadAnnoMonitorAlertIconDisabled
 70
     0
  0
ENDTAB
  0
TABLE
  2
DIMSTYLE
  5
A
330
0
100
AcDbSymbolTable
 70
     4
100
AcDbDimStyleTable
 71
     2
340
27
340
137
  0
DIMSTYLE
105
1B0
330
A
100
AcDbSymbolTableRecord
100
AcDbDimStyleTableRecord
  2
Standard
 70
     0
340
11
  0
DIMSTYLE
105
137
330
A
100
AcDbSymbolTableRecord
100
AcDbDimStyleTableRecord
  2
Anotativo
 70
     0
 40
0.0
 41
2.5
 42
0.625
 43
3.75
 44
1.25
 73
     0
 74
     0
 77
     1
 78
     8
140
2.5
141
2.5
143
0.03937007874016
147
0.625
171
     3
172
     1
271
     2
272
     2
274
     3
278
    44
283
     0
284
     8
340
11
1001
AcadAnnotative
1000
AnnotativeData
1002
{
1070
     1
1070
     1
1002
}
1001
ACAD_DSTYLE_DIMJAG
1070
   388
1040
1.5
1001
ACAD_DSTYLE_DIMTALN
1070
   392
1070
     0
  0
DIMSTYLE
105
27
102
{ACAD_REACTORS
330
354
330
35A
330
35F
330
364
330
369
330
36E
330
373
330
378
330
37D
330
382
330
387
330
39A
330
39F
330
3A6
330
3AB
330
3B6
330
3C7
330
3CC
330
3E4
330
3EF
330
40A
330
411
330
416
330
41B
330
420
330
42A
330
42F
330
434
330
439
330
43E
330
448
330
44D
330
453
330
458
330
45D
330
462
330
467
330
46C
330
471
330
476
102
}
330
A
100
AcDbSymbolTableRecord
100
AcDbDimStyleTableRecord
  2
ISO-25
 70
     0
 41
2.5
 42
0.625
 43
3.75
 44
1.25
 73
     0
 74
     0
 77
     1
 78
     8
140
2.5
141
2.5
143
0.03937007874016
147
0.625
171
     3
172
     1
271
     2
272
     2
274
     3
278
    44
283
     0
284
     8
340
11
  0
ENDTAB
  0
TABLE
  2
BLOCK_RECORD
  5
1
330
0
100
AcDbSymbolTable
 70
     2
  0
BLOCK_RECORD
  5
1F
102
{ACAD_XDICTIONARY
360
1CE
102
}
330
1
100
AcDbSymbolTableRecord
100
AcDbBlockTableRecord
  2
*Model_Space
340
22
  0
BLOCK_RECORD
  5
D2
330
1
100
AcDbSymbolTableRecord
100
AcDbBlockTableRecord
  2
*Paper_Space
340
D3
  0
BLOCK_RECORD
  5
D6
330
1
100
AcDbSymbolTableRecord
100
AcDbBlockTableRecord
  2
*Paper_Space0
340
D7
  0
BLOCK_RECORD
  5
344
330
1
100
AcDbSymbolTableRecord
100
AcDbBlockTableRecord
  2
_ClosedBlank
340
0
  0
ENDTAB
  0
ENDSEC
  0
SECTION
  2
BLOCKS
  0
BLOCK
  5
20
330
1F
100
AcDbEntity
  8
0
100
AcDbBlockBegin
  2
*Model_Space
 70
     0
 10
0.0
 20
0.0
 30
0.0
  3
*Model_Space
  1

  0
ENDBLK
  5
21
330
1F
100
AcDbEntity
  8
0
100
AcDbBlockEnd
  0
BLOCK
  5
D4
330
D2
100
AcDbEntity
 67
     1
  8
0
100
AcDbBlockBegin
  2
*Paper_Space
 70
     0
 10
0.0
 20
0.0
 30
0.0
  3
*Paper_Space
  1

  0
ENDBLK
  5
D5
330
D2
100
AcDbEntity
 67
     1
  8
0
100
AcDbBlockEnd
  0
BLOCK
  5
D8
330
D6
100
AcDbEntity
 67
     1
  8
0
100
AcDbBlockBegin
  2
*Paper_Space0
 70
     0
 10
0.0
 20
0.0
 30
0.0
  3
*Paper_Space0
  1

  0
ENDBLK
  5
D9
330
D6
100
AcDbEntity
 67
     1
  8
0
100
AcDbBlockEnd
  0
BLOCK
  5
348
330
344
100
AcDbEntity
  8
0
100
AcDbBlockBegin
  2
_ClosedBlank
 70
     0
 10
0.0
 20
0.0
 30
0.0
  3
_ClosedBlank
  1

  0
LINE
  5
345
330
344
100
AcDbEntity
  8
0
  6
ByBlock
 62
     0
370
    -2
100
AcDbLine
 10
-1.0
 20
0.1666666666666666
 30
0.0
 11
0.0
 21
0.0
 31
0.0
  0
LINE
  5
346
330
344
100
AcDbEntity
  8
0
  6
ByBlock
 62
     0
370
    -2
100
AcDbLine
 10
0.0
 20
0.0
 30
0.0
 11
-1.0
 21
-0.1666666666666666
 31
0.0
  0
LINE
  5
347
330
344
100
AcDbEntity
  8
0
  6
ByBlock
 62
     0
370
    -2
100
AcDbLine
 10
-1.0
 20
0.1666666666666666
 30
0.0
 11
-1.0
 21
-0.1666666666666666
 31
0.0
  0
ENDBLK
  5
349
330
344
100
AcDbEntity
  8
0
100
AcDbBlockEnd
  0
ENDSEC
  0
SECTION
  2
ENTITIES
  0
LINE
  5
28B
102
{ACAD_REACTORS
330
2DC
102
}
330
1F
100
AcDbEntity
  8
0
100
AcDbLine
 10
3599.432330845572
 20
1589.921229272199
 30
0.0
 11
3601.432330845571
 21
1589.921229272199
 31
0.0
  0
LINE
  5
28C
102
{ACAD_REACTORS
330
2DE
102
}
330
1F
100
AcDbEntity
  8
0
100
AcDbLine
 10
3601.432330845571
 20
1589.921229272199
 30
0.0
 11
3601.431444565327
 21
1579.921229272199
 31
0.0
  0
LINE
  5
28D
102
{ACAD_REACTORS
330
2E8
102
}
330
1F
100
AcDbEntity
  8
0
100
AcDbLine
 10
3601.431444565327
 20
1579.921229272199
 30
0.0
 11
3599.431444565327
 21
1579.921229272199
 31
0.0
  0
LINE
  5
28E
102
{ACAD_REACTORS
330
2E9
102
}
330
1F
100
AcDbEntity
  8
0
100
AcDbLine
 10
3599.431444565327
 20
1579.921229272199
 30
0.0
 11
3599.431444565327
 21
1569.6212292722
 31
0.0
  0
LINE
  5
28F
102
{ACAD_REACTORS
330
2EA
102
}
330
1F
100
AcDbEntity
  8
0
100
AcDbLine
 10
3599.431444565327
 20
1569.6212292722
 30
0.0
 11
3601.431444565327
 21
1569.6212292722
 31
0.0
  0
LINE
  5
290
102
{ACAD_REACTORS
330
2EB
102
}
330
1F
100
AcDbEntity
  8
0
100
AcDbLine
 10
3601.431444565327
 20
1569.6212292722
 30
0.0
 11
3601.431444565328
 21
1559.621229272199
 31
0.0
  0
LINE
  5
291
102
{ACAD_REACTORS
330
2EC
102
}
330
1F
100
AcDbEntity
  8
0
100
AcDbLine
 10
3601.431444565328
 20
1559.621229272199
 30
0.0
 11
3599.431444565328
 21
1559.621229272199
 31
0.0
  0
LINE
  5
292
102
{ACAD_REACTORS
330
2ED
102
}
330
1F
100
AcDbEntity
  8
0
100
AcDbLine
 10
3599.431444565328
 20
1559.621229272199
 30
0.0
 11
3599.431444565328
 21
1549.321229272199
 31
0.0
  0
LINE
  5
293
102
{ACAD_REACTORS
330
2EE
102
}
330
1F
100
AcDbEntity
  8
0
100
AcDbLine
 10
3599.431444565328
 20
1549.321229272199
 30
0.0
 11
3601.431444565328
 21
1549.321229272199
 31
0.0
  0
LINE
  5
294
102
{ACAD_REACTORS
330
2EF
102
}
330
1F
100
AcDbEntity
  8
0
100
AcDbLine
 10
3601.431444565328
 20
1549.321229272199
 30
0.0
 11
3601.240853781174
 21
1539.321229272199
 31
0.0
  0
LINE
  5
295
102
{ACAD_REACTORS
330
2F8
102
}
330
1F
100
AcDbEntity
  8
0
100
AcDbLine
 10
3601.240853781174
 20
1539.321229272199
 30
0.0
 11
3599.240853781174
 21
1539.321229272199
 31
0.0
  0
LINE
  5
296
102
{ACAD_REACTORS
330
2F9
102
}
330
1F
100
AcDbEntity
  8
0
100
AcDbLine
 10
3599.240853781174
 20
1539.321229272199
 30
0.0
 11
3599.240853781174
 21
1529.021229272199
 31
0.0
  0
LINE
  5
299
102
{ACAD_REACTORS
330
2FA
102
}
330
1F
100
AcDbEntity
  8
0
100
AcDbLine
 10
3599.240853781174
 20
1529.021229272199
 30
0.0
 11
3601.240853781174
 21
1529.021229272199
 31
0.0
  0
LINE
  5
29A
102
{ACAD_REACTORS
330
2FB
102
}
330
1F
100
AcDbEntity
  8
0
100
AcDbLine
 10
3601.240853781174
 20
1529.021229272199
 30
0.0
 11
3601.240853781174
 21
1519.0212292722
 31
0.0
  0
LINE
  5
29B
102
{ACAD_REACTORS
330
2FC
102
}
330
1F
100
AcDbEntity
  8
0
100
AcDbLine
 10
3601.240853781174
 20
1519.0212292722
 30
0.0
 11
3599.240853781174
 21
1519.0212292722
 31
0.0
  0
LINE
  5
29C
102
{ACAD_REACTORS
330
2FD
102
}
330
1F
100
AcDbEntity
  8
0
100
AcDbLine
 10
3599.240853781174
 20
1519.0212292722
 30
0.0
 11
3599.240853781174
 21
1508.7212292722
 31
0.0
  0
LINE
  5
29D
102
{ACAD_REACTORS
330
2FE
102
}
330
1F
100
AcDbEntity
  8
0
100
AcDbLine
 10
3599.240853781174
 20
1508.7212292722
 30
0.0
 11
3601.240853781174
 21
1508.7212292722
 31
0.0
  0
LINE
  5
29E
102
{ACAD_REACTORS
330
2FF
102
}
330
1F
100
AcDbEntity
  8
0
100
AcDbLine
 10
3601.240853781174
 20
1508.7212292722
 30
0.0
 11
3601.229590982927
 21
1498.4212292722
 31
0.0
  0
LINE
  5
29F
102
{ACAD_REACTORS
330
300
102
}
330
1F
100
AcDbEntity
  8
0
100
AcDbLine
 10
3601.229590982927
 20
1498.4212292722
 30
0.0
 11
3698.229590982926
 21
1498.4212292722
 31
0.0
  0
LINE
  5
2A0
102
{ACAD_REACTORS
330
30D
102
}
330
1F
100
AcDbEntity
  8
0
100
AcDbLine
 10
3698.229590982926
 20
1498.4212292722
 30
0.0
 11
3698.229590982926
 21
1508.7212292722
 31
0.0
  0
LINE
  5
2AB
102
{ACAD_REACTORS
330
318
102
}
330
1F
100
AcDbEntity
  8
0
100
AcDbLine
 10
3698.229590982926
 20
1549.321437318203
 30
0.0
 11
3696.229590982926
 21
1549.321437318203
 31
0.0
  0
LINE
  5
2AD
102
{ACAD_REACTORS
330
323
102
}
330
1F
100
AcDbEntity
  8
0
100
AcDbLine
 10
3696.229590982926
 20
1559.321437318203
 30
0.0
 11
3698.229590982926
 21
1559.321437318203
 31
0.0
  0
LINE
  5
2BF
102
{ACAD_REACTORS
330
2DD
102
}
330
1F
100
AcDbEntity
  8
0
100
AcDbLine
 10
3599.432330845572
 20
1589.921229272199
 30
0.0
 11
3599.441013480893
 21
1600.221229272199
 31
0.0
  0
LINE
  5
2C0
102
{ACAD_REACTORS
330
2DF
102
}
330
1F
100
AcDbEntity
  8
0
100
AcDbLine
 10
3599.441013480893
 20
1600.221229272199
 30
0.0
 11
3696.441013480893
 21
1600.221229272199
 31
0.0
  0
LINE
  5
301
102
{ACAD_REACTORS
330
30F
102
}
330
1F
100
AcDbEntity
  8
0
100
AcDbLine
 10
3696.229590982927
 20
1508.7212292722
 30
0.0
 11
3696.229590982927
 21
1518.721229272199
 31
0.0
  0
LINE
  5
302
102
{ACAD_REACTORS
330
30E
102
}
330
1F
100
AcDbEntity
  8
0
100
AcDbLine
 10
3698.229590982926
 20
1508.7212292722
 30
0.0
 11
3696.229590982927
 21
1508.7212292722
 31
0.0
  0
LINE
  5
314
102
{ACAD_REACTORS
330
316
102
}
330
1F
100
AcDbEntity
  8
0
100
AcDbLine
 10
3696.229590982926
 20
1539.0212292722
 30
0.0
 11
3698.229590982926
 21
1539.021437318203
 31
0.0
  0
LINE
  5
315
102
{ACAD_REACTORS
330
317
102
}
330
1F
100
AcDbEntity
  8
0
100
AcDbLine
 10
3698.229590982926
 20
1539.021437318203
 30
0.0
 11
3698.229590982926
 21
1549.321437318203
 31
0.0
  0
LINE
  5
327
102
{ACAD_REACTORS
330
329
102
}
330
1F
100
AcDbEntity
  8
0
100
AcDbLine
 10
3696.441013480893
 20
1579.908772542306
 30
0.0
 11
3698.441013480893
 21
1579.908772542306
 31
0.0
  0
DIMENSION
  5
354
102
{ACAD_XDICTIONARY
360
569
102
}
102
{ACAD_REACTORS
330
357
102
}
330
1F
100
AcDbEntity
  8
ADSK_CONSTRAINTS
 60
     1
100
AcDbDimension
 10
3698.229590982926
 20
1507.76528252622
 30
0.0
 11
3698.229590982926
 21
1507.76528252622
 31
0.0
 70
   128
  1
d2=pestaña
 71
     5
 42
97.0
  3
ISO-25
100
AcDbAlignedDimension
 13
3601.229590982927
 23
1498.4212292722
 33
0.0
 14
3698.229590982926
 24
1498.4212292722
 34
0.0
100
AcDbRotatedDimension
  0
DIMENSION
  5
35A
102
{ACAD_XDICTIONARY
360
56B
102
}
102
{ACAD_REACTORS
330
35D
102
}
330
1F
100
AcDbEntity
  8
ADSK_CONSTRAINTS
 60
     1
100
AcDbDimension
 10
3601.432330845571
 20
1589.921229272199
 30
0.0
 11
3601.432330845571
 21
1589.921229272199
 31
0.0
 70
   128
  1
d3=mdf_width
 71
     5
 42
3.0
  3
ISO-25
100
AcDbAlignedDimension
 13
3599.432330845572
 23
1589.921229272199
 33
0.0
 14
3601.432330845571
 24
1589.921229272199
 34
0.0
100
AcDbRotatedDimension
  0
DIMENSION
  5
35F
102
{ACAD_XDICTIONARY
360
56D
102
}
102
{ACAD_REACTORS
330
362
102
}
330
1F
100
AcDbEntity
  8
ADSK_CONSTRAINTS
 60
     1
100
AcDbDimension
 10
3601.431444565327
 20
1579.9212292722
 30
0.0
 11
3601.431444565327
 21
1579.9212292722
 31
0.0
 70
   128
  1
d4=mdf_width
 71
     5
 42
3.0
  3
ISO-25
100
AcDbAlignedDimension
 13
3599.431444565327
 23
1579.921229272199
 33
0.0
 14
3601.431444565327
 24
1579.921229272199
 34
0.0
100
AcDbRotatedDimension
  0
DIMENSION
  5
364
102
{ACAD_XDICTIONARY
360
56F
102
}
102
{ACAD_REACTORS
330
367
102
}
330
1F
100
AcDbEntity
  8
ADSK_CONSTRAINTS
 60
     1
100
AcDbDimension
 10
3601.431444565327
 20
1569.6212292722
 30
0.0
 11
3601.431444565327
 21
1569.6212292722
 31
0.0
 70
   128
  1
d5=mdf_width
 71
     5
 42
3.0
  3
ISO-25
100
AcDbAlignedDimension
 13
3599.431444565327
 23
1569.6212292722
 33
0.0
 14
3601.431444565327
 24
1569.6212292722
 34
0.0
100
AcDbRotatedDimension
  0
DIMENSION
  5
369
102
{ACAD_XDICTIONARY
360
571
102
}
102
{ACAD_REACTORS
330
36C
102
}
330
1F
100
AcDbEntity
  8
ADSK_CONSTRAINTS
 60
     1
100
AcDbDimension
 10
3601.431444565327
 20
1559.621229272198
 30
0.0
 11
3601.431444565327
 21
1559.621229272198
 31
0.0
 70
   128
  1
d6=mdf_width
 71
     5
 42
3.0
  3
ISO-25
100
AcDbAlignedDimension
 13
3599.431444565328
 23
1559.621229272199
 33
0.0
 14
3601.431444565328
 24
1559.621229272199
 34
0.0
100
AcDbRotatedDimension
  0
DIMENSION
  5
36E
102
{ACAD_XDICTIONARY
360
573
102
}
102
{ACAD_REACTORS
330
371
102
}
330
1F
100
AcDbEntity
  8
ADSK_CONSTRAINTS
 60
     1
100
AcDbDimension
 10
3601.431444565328
 20
1549.321229272198
 30
0.0
 11
3601.431444565328
 21
1549.321229272198
 31
0.0
 70
   128
  1
d7=mdf_width
 71
     5
 42
3.0
  3
ISO-25
100
AcDbAlignedDimension
 13
3599.431444565328
 23
1549.321229272199
 33
0.0
 14
3601.431444565328
 24
1549.321229272199
 34
0.0
100
AcDbRotatedDimension
  0
DIMENSION
  5
373
102
{ACAD_XDICTIONARY
360
575
102
}
102
{ACAD_REACTORS
330
376
102
}
330
1F
100
AcDbEntity
  8
ADSK_CONSTRAINTS
 60
     1
100
AcDbDimension
 10
3601.240853781174
 20
1540.275400314594
 30
0.0
 11
3601.240853781174
 21
1540.275400314594
 31
0.0
 70
   128
  1
d8=mdf_width
 71
     5
 42
2.999999926886175
  3
ISO-25
100
AcDbAlignedDimension
 13
3599.240853781174
 23
1539.321229272199
 33
0.0
 14
3601.240853781174
 24
1539.321229272199
 34
0.0
100
AcDbRotatedDimension
  0
DIMENSION
  5
378
102
{ACAD_XDICTIONARY
360
577
102
}
102
{ACAD_REACTORS
330
37B
102
}
330
1F
100
AcDbEntity
  8
ADSK_CONSTRAINTS
 60
     1
100
AcDbDimension
 10
3601.240853781174
 20
1529.021229272197
 30
0.0
 11
3601.240853781174
 21
1529.021229272197
 31
0.0
 70
   128
  1
d9=mdf_width
 71
     5
 42
3.0
  3
ISO-25
100
AcDbAlignedDimension
 13
3599.240853781174
 23
1529.021229272199
 33
0.0
 14
3601.240853781174
 24
1529.021229272199
 34
0.0
100
AcDbRotatedDimension
  0
DIMENSION
  5
37D
102
{ACAD_XDICTIONARY
360
579
102
}
102
{ACAD_REACTORS
330
380
102
}
330
1F
100
AcDbEntity
  8
ADSK_CONSTRAINTS
 60
     1
100
AcDbDimension
 10
3601.240853781174
 20
1519.021229272192
 30
0.0
 11
3601.240853781174
 21
1519.021229272192
 31
0.0
 70
   128
  1
d10=mdf_width
 71
     5
 42
3.0
  3
ISO-25
100
AcDbAlignedDimension
 13
3599.240853781174
 23
1519.0212292722
 33
0.0
 14
3601.240853781174
 24
1519.0212292722
 34
0.0
100
AcDbRotatedDimension
  0
DIMENSION
  5
382
102
{ACAD_XDICTIONARY
360
57B
102
}
102
{ACAD_REACTORS
330
385
102
}
330
1F
100
AcDbEntity
  8
ADSK_CONSTRAINTS
 60
     1
100
AcDbDimension
 10
3601.240853781174
 20
1512.206849858834
 30
0.0
 11
3601.240853781174
 21
1512.206849858834
 31
0.0
 70
   128
  1
d11=mdf_width
 71
     5
 42
3.0
  3
ISO-25
100
AcDbAlignedDimension
 13
3599.240853781174
 23
1508.7212292722
 33
0.0
 14
3601.240853781174
 24
1508.7212292722
 34
0.0
100
AcDbRotatedDimension
  0
DIMENSION
  5
387
102
{ACAD_XDICTIONARY
360
57D
102
}
102
{ACAD_REACTORS
330
38A
102
}
330
1F
100
AcDbEntity
  8
ADSK_CONSTRAINTS
 60
     1
100
AcDbDimension
 10
3696.229590982927
 20
1508.721229272194
 30
0.0
 11
3696.229590982927
 21
1508.721229272194
 31
0.0
 70
   128
  1
d12=mdf_width
 71
     5
 42
3.0
  3
ISO-25
100
AcDbAlignedDimension
 13
3698.229590982926
 23
1508.7212292722
 33
0.0
 14
3696.229590982927
 24
1508.7212292722
 34
0.0
100
AcDbRotatedDimension
  0
LINE
  5
38C
102
{ACAD_REACTORS
330
390
102
}
330
1F
100
AcDbEntity
  8
0
100
AcDbLine
 10
3696.229590982927
 20
1518.721229272199
 30
0.0
 11
3698.229590982926
 21
1518.721229272199
 31
0.0
  0
LINE
  5
38D
102
{ACAD_REACTORS
330
391
102
}
330
1F
100
AcDbEntity
  8
0
100
AcDbLine
 10
3698.229590982926
 20
1518.721229272199
 30
0.0
 11
3698.229590982926
 21
1529.021229272199
 31
0.0
  0
LINE
  5
38E
102
{ACAD_REACTORS
330
392
102
}
330
1F
100
AcDbEntity
  8
0
100
AcDbLine
 10
3698.229590982926
 20
1529.021229272199
 30
0.0
 11
3696.229590982927
 21
1529.021229272199
 31
0.0
  0
LINE
  5
38F
102
{ACAD_REACTORS
330
393
102
}
330
1F
100
AcDbEntity
  8
0
100
AcDbLine
 10
3696.229590982927
 20
1529.021229272199
 30
0.0
 11
3696.229590982926
 21
1539.0212292722
 31
0.0
  0
DIMENSION
  5
39A
102
{ACAD_XDICTIONARY
360
57F
102
}
102
{ACAD_REACTORS
330
39D
102
}
330
1F
100
AcDbEntity
  8
ADSK_CONSTRAINTS
 60
     1
100
AcDbDimension
 10
3696.229590982927
 20
1529.021229272199
 30
0.0
 11
3696.229590982927
 21
1529.021229272199
 31
0.0
 70
   128
  1
d14=mdf_width
 71
     5
 42
2.999995997419773
  3
ISO-25
100
AcDbAlignedDimension
 13
3698.229590982926
 23
1529.021229272199
 33
0.0
 14
3696.229590982927
 24
1529.021229272199
 34
0.0
100
AcDbRotatedDimension
  0
DIMENSION
  5
39F
102
{ACAD_XDICTIONARY
360
581
102
}
102
{ACAD_REACTORS
330
3A2
102
}
330
1F
100
AcDbEntity
  8
ADSK_CONSTRAINTS
 60
     1
100
AcDbDimension
 10
3698.229590975712
 20
1539.0214373182
 30
0.0
 11
3698.229590975712
 21
1539.0214373182
 31
0.0
 70
   128
  1
d15=mdf_width
 71
     5
 42
2.999999992786342
  3
ISO-25
100
AcDbAlignedDimension
 13
3696.229590982926
 23
1539.0212292722
 33
0.0
 14
3698.229590982926
 24
1539.021437318203
 34
0.0
100
AcDbRotatedDimension
  0
LINE
  5
3A4
102
{ACAD_REACTORS
330
3A5
102
}
330
1F
100
AcDbEntity
  8
0
100
AcDbLine
 10
3696.229590982926
 20
1549.321437318203
 30
0.0
 11
3696.229590982926
 21
1559.321437318203
 31
0.0
  0
DIMENSION
  5
3A6
102
{ACAD_XDICTIONARY
360
583
102
}
102
{ACAD_REACTORS
330
3A9
102
}
330
1F
100
AcDbEntity
  8
ADSK_CONSTRAINTS
 60
     1
100
AcDbDimension
 10
3696.229590982926
 20
1549.321437318196
 30
0.0
 11
3696.229590982926
 21
1549.321437318196
 31
0.0
 70
   128
  1
d16=mdf_width
 71
     5
 42
3.000089687862327
  3
ISO-25
100
AcDbAlignedDimension
 13
3698.229590982926
 23
1549.321437318203
 33
0.0
 14
3696.229590982926
 24
1549.321437318203
 34
0.0
100
AcDbRotatedDimension
  0
DIMENSION
  5
3AB
102
{ACAD_XDICTIONARY
360
585
102
}
102
{ACAD_REACTORS
330
3AE
102
}
330
1F
100
AcDbEntity
  8
ADSK_CONSTRAINTS
 60
     1
100
AcDbDimension
 10
3698.229590982926
 20
1559.321437318201
 30
0.0
 11
3698.229590982926
 21
1559.321437318201
 31
0.0
 70
   128
  1
d17=mdf_width
 71
     5
 42
3.0
  3
ISO-25
100
AcDbAlignedDimension
 13
3696.229590982926
 23
1559.321437318203
 33
0.0
 14
3698.229590982926
 24
1559.321437318203
 34
0.0
100
AcDbRotatedDimension
  0
LINE
  5
3B0
102
{ACAD_REACTORS
330
3B3
102
}
330
1F
100
AcDbEntity
  8
0
100
AcDbLine
 10
3698.441879727624
 20
1559.608772542305
 30
0.0
 11
3698.440824363266
 21
1569.908772542305
 31
0.0
  0
LINE
  5
3B1
102
{ACAD_REACTORS
330
3B4
102
}
330
1F
100
AcDbEntity
  8
0
100
AcDbLine
 10
3698.440824363266
 20
1569.908772542305
 30
0.0
 11
3696.440824363266
 21
1569.908772542305
 31
0.0
  0
LINE
  5
3B2
102
{ACAD_REACTORS
330
3B5
102
}
330
1F
100
AcDbEntity
  8
0
100
AcDbLine
 10
3696.440824363266
 20
1569.908772542305
 30
0.0
 11
3696.441013480893
 21
1579.908772542306
 31
0.0
  0
DIMENSION
  5
3B6
102
{ACAD_XDICTIONARY
360
587
102
}
102
{ACAD_REACTORS
330
3B9
102
}
330
1F
100
AcDbEntity
  8
ADSK_CONSTRAINTS
 60
     1
100
AcDbDimension
 10
3696.440824363266
 20
1569.908772542303
 30
0.0
 11
3696.440824363266
 21
1569.908772542303
 31
0.0
 70
   128
  1
d18=mdf_width
 71
     5
 42
3.0
  3
ISO-25
100
AcDbAlignedDimension
 13
3698.440824363266
 23
1569.908772542305
 33
0.0
 14
3696.440824363266
 24
1569.908772542305
 34
0.0
100
AcDbRotatedDimension
  0
LINE
  5
3C1
102
{ACAD_REACTORS
330
3C4
102
}
330
1F
100
AcDbEntity
  8
0
100
AcDbLine
 10
3698.441013480893
 20
1579.908772542306
 30
0.0
 11
3698.441013480894
 21
1590.208772542306
 31
0.0
  0
LINE
  5
3C2
102
{ACAD_REACTORS
330
3C5
102
}
330
1F
100
AcDbEntity
  8
0
100
AcDbLine
 10
3698.441013480894
 20
1590.208772542306
 30
0.0
 11
3696.441013480893
 21
1590.221229272199
 31
0.0
  0
LINE
  5
3C3
102
{ACAD_REACTORS
330
3C6
102
}
330
1F
100
AcDbEntity
  8
0
100
AcDbLine
 10
3696.441013480893
 20
1590.221229272199
 30
0.0
 11
3696.441013480893
 21
1600.221229272199
 31
0.0
  0
DIMENSION
  5
3C7
102
{ACAD_XDICTIONARY
360
589
102
}
102
{ACAD_REACTORS
330
3CA
102
}
330
1F
100
AcDbEntity
  8
ADSK_CONSTRAINTS
 60
     1
100
AcDbDimension
 10
3698.441013480893
 20
1579.908772542304
 30
0.0
 11
3698.441013480893
 21
1579.908772542304
 31
0.0
 70
   128
  1
d1=mdf_width
 71
     5
 42
3.0
  3
ISO-25
100
AcDbAlignedDimension
 13
3696.441013480893
 23
1579.908772542306
 33
0.0
 14
3698.441013480893
 24
1579.908772542306
 34
0.0
100
AcDbRotatedDimension
  0
DIMENSION
  5
3CC
102
{ACAD_XDICTIONARY
360
58B
102
}
102
{ACAD_REACTORS
330
3CF
102
}
330
1F
100
AcDbEntity
  8
ADSK_CONSTRAINTS
 60
     1
100
AcDbDimension
 10
3698.441013480894
 20
1590.208772540516
 30
0.0
 11
3698.441013480894
 21
1590.208772540516
 31
0.0
 70
   128
  1
d19=mdf_width
 71
     5
 42
2.999974138194374
  3
ISO-25
100
AcDbAlignedDimension
 13
3696.441013480893
 23
1590.221229272199
 33
0.0
 14
3698.441013480894
 24
1590.208772542306
 34
0.0
100
AcDbRotatedDimension
  0
DIMENSION
  5
3E4
102
{ACAD_XDICTIONARY
360
58D
102
}
102
{ACAD_REACTORS
330
3E7
102
}
330
1F
100
AcDbEntity
  8
ADSK_CONSTRAINTS
 60
     1
100
AcDbDimension
 10
3696.441013480893
 20
1600.221229272199
 30
0.0
 11
3696.441013480893
 21
1600.221229272199
 31
0.0
 70
   128
  1
d20=pestaña
 71
     5
 42
97.0
  3
ISO-25
100
AcDbAlignedDimension
 13
3599.441013480893
 23
1600.221229272199
 33
0.0
 14
3696.441013480893
 24
1600.221229272199
 34
0.0
100
AcDbRotatedDimension
  0
DIMENSION
  5
3EF
102
{ACAD_XDICTIONARY
360
58F
102
}
102
{ACAD_REACTORS
330
3F2
102
}
330
1F
100
AcDbEntity
  8
ADSK_CONSTRAINTS
 60
     1
100
AcDbDimension
 10
3698.229590982926
 20
1515.945581535276
 30
0.0
 11
3698.229590982926
 21
1515.945581535276
 31
0.0
 70
   128
  1
d13=mdf_width
 71
     5
 42
3.003775721080728
  3
ISO-25
100
AcDbAlignedDimension
 13
3696.229590982927
 23
1518.721229272199
 33
0.0
 14
3698.229590982926
 24
1518.721229272199
 34
0.0
100
AcDbRotatedDimension
  0
DIMENSION
  5
40A
102
{ACAD_XDICTIONARY
360
591
102
}
102
{ACAD_REACTORS
330
40F
102
}
330
1F
100
AcDbEntity
  8
ADSK_CONSTRAINTS
 60
     1
100
AcDbDimension
 10
3564.898648556245
 20
1589.921229272199
 30
0.0
 11
3564.898648556245
 21
1589.921229272199
 31
0.0
 70
   128
  1
d21=10.3
 71
     5
 42
9.999996230591477
  3
ISO-25
100
AcDbAlignedDimension
 13
3599.441013480893
 23
1600.221229272199
 33
0.0
 14
3599.432330845572
 24
1589.921229272199
 34
0.0
 50
90.0
100
AcDbRotatedDimension
  0
DIMENSION
  5
411
102
{ACAD_XDICTIONARY
360
593
102
}
102
{ACAD_REACTORS
330
414
102
}
330
1F
100
AcDbEntity
  8
ADSK_CONSTRAINTS
 60
     1
100
AcDbDimension
 10
3572.486546730915
 20
1569.6212292722
 30
0.0
 11
3572.486546730915
 21
1569.6212292722
 31
0.0
 70
   128
  1
d22=10.3
 71
     5
 42
10.0
  3
ISO-25
100
AcDbAlignedDimension
 13
3599.431444565327
 23
1579.921229272199
 33
0.0
 14
3599.431444565327
 24
1569.6212292722
 34
0.0
 50
90.0
100
AcDbRotatedDimension
  0
DIMENSION
  5
416
102
{ACAD_XDICTIONARY
360
595
102
}
102
{ACAD_REACTORS
330
419
102
}
330
1F
100
AcDbEntity
  8
ADSK_CONSTRAINTS
 60
     1
100
AcDbDimension
 10
3578.170958385428
 20
1549.321229272199
 30
0.0
 11
3578.170958385428
 21
1549.321229272199
 31
0.0
 70
   128
  1
d23=10.3
 71
     5
 42
10.0
  3
ISO-25
100
AcDbAlignedDimension
 13
3599.431444565328
 23
1559.621229272199
 33
0.0
 14
3599.431444565328
 24
1549.321229272199
 34
0.0
 50
90.0
100
AcDbRotatedDimension
  0
DIMENSION
  5
41B
102
{ACAD_XDICTIONARY
360
597
102
}
102
{ACAD_REACTORS
330
41E
102
}
330
1F
100
AcDbEntity
  8
ADSK_CONSTRAINTS
 60
     1
100
AcDbDimension
 10
3584.926498719188
 20
1529.021229272199
 30
0.0
 11
3584.926498719188
 21
1529.021229272199
 31
0.0
 70
   128
  1
d24=10.3
 71
     5
 42
9.999999906199491
  3
ISO-25
100
AcDbAlignedDimension
 13
3599.240853781174
 23
1539.321229272199
 33
0.0
 14
3599.240853781174
 24
1529.021229272199
 34
0.0
 50
90.0
100
AcDbRotatedDimension
  0
DIMENSION
  5
420
102
{ACAD_XDICTIONARY
360
599
102
}
102
{ACAD_REACTORS
330
423
102
}
330
1F
100
AcDbEntity
  8
ADSK_CONSTRAINTS
 60
     1
100
AcDbDimension
 10
3586.823578170005
 20
1508.7212292722
 30
0.0
 11
3586.823578170005
 21
1508.7212292722
 31
0.0
 70
   128
  1
d25=10.3
 71
     5
 42
9.999999963922391
  3
ISO-25
100
AcDbAlignedDimension
 13
3599.240853781174
 23
1519.0212292722
 33
0.0
 14
3599.240853781174
 24
1508.7212292722
 34
0.0
 50
90.0
100
AcDbRotatedDimension
  0
DIMENSION
  5
42A
102
{ACAD_XDICTIONARY
360
59B
102
}
102
{ACAD_REACTORS
330
42D
102
}
330
1F
100
AcDbEntity
  8
ADSK_CONSTRAINTS
 60
     1
100
AcDbDimension
 10
3706.068391887946
 20
1579.908772542306
 30
0.0
 11
3706.068391887946
 21
1579.908772542306
 31
0.0
 70
   128
  1
d26=10.3
 71
     5
 42
9.999999833319407
  3
ISO-25
100
AcDbAlignedDimension
 13
3698.441013480894
 23
1590.208772542306
 33
0.0
 14
3698.441013480893
 24
1579.908772542306
 34
0.0
 50
90.0
100
AcDbRotatedDimension
  0
DIMENSION
  5
42F
102
{ACAD_XDICTIONARY
360
59D
102
}
102
{ACAD_REACTORS
330
432
102
}
330
1F
100
AcDbEntity
  8
ADSK_CONSTRAINTS
 60
     1
100
AcDbDimension
 10
3639.118655979563
 20
1559.608772542305
 30
0.0
 11
3639.118655979563
 21
1559.608772542305
 31
0.0
 70
   128
  1
d27=10.3
 71
     5
 42
9.999999944310275
  3
ISO-25
100
AcDbAlignedDimension
 13
3698.440824363266
 23
1569.908772542305
 33
0.0
 14
3698.441879727624
 24
1559.608772542305
 34
0.0
 50
90.0
100
AcDbRotatedDimension
  0
DIMENSION
  5
434
102
{ACAD_XDICTIONARY
360
59F
102
}
102
{ACAD_REACTORS
330
437
102
}
330
1F
100
AcDbEntity
  8
ADSK_CONSTRAINTS
 60
     1
100
AcDbDimension
 10
3644.279805766375
 20
1539.021437318203
 30
0.0
 11
3644.279805766375
 21
1539.021437318203
 31
0.0
 70
   128
  1
d28=10.3
 71
     5
 42
10.00908242300147
  3
ISO-25
100
AcDbAlignedDimension
 13
3698.229590982926
 23
1549.321437318203
 33
0.0
 14
3698.229590982926
 24
1539.021437318203
 34
0.0
 50
90.0
100
AcDbRotatedDimension
  0
DIMENSION
  5
439
102
{ACAD_XDICTIONARY
360
5A1
102
}
102
{ACAD_REACTORS
330
43C
102
}
330
1F
100
AcDbEntity
  8
ADSK_CONSTRAINTS
 60
     1
100
AcDbDimension
 10
3655.341160097632
 20
1518.721229272199
 30
0.0
 11
3655.341160097632
 21
1518.721229272199
 31
0.0
 70
   128
  1
d29=10.3
 71
     5
 42
10.03282959801208
  3
ISO-25
100
AcDbAlignedDimension
 13
3698.229590982926
 23
1529.021229272199
 33
0.0
 14
3698.229590982926
 24
1518.721229272199
 34
0.0
 50
90.0
100
AcDbRotatedDimension
  0
DIMENSION
  5
43E
102
{ACAD_XDICTIONARY
360
5A3
102
}
102
{ACAD_REACTORS
330
441
102
}
330
1F
100
AcDbEntity
  8
ADSK_CONSTRAINTS
 60
     1
100
AcDbDimension
 10
3666.394182565487
 20
1498.4212292722
 30
0.0
 11
3666.394182565487
 21
1498.4212292722
 31
0.0
 70
   128
  1
d30=10.3
 71
     5
 42
10.0
  3
ISO-25
100
AcDbAlignedDimension
 13
3698.229590982926
 23
1508.7212292722
 33
0.0
 14
3698.229590982926
 24
1498.4212292722
 34
0.0
 50
90.0
100
AcDbRotatedDimension
  0
DIMENSION
  5
448
102
{ACAD_XDICTIONARY
360
5A5
102
}
102
{ACAD_REACTORS
330
44B
102
}
330
1F
100
AcDbEntity
  8
ADSK_CONSTRAINTS
 60
     1
100
AcDbDimension
 10
3613.224829092746
 20
1579.921229272199
 30
0.0
 11
3613.224829092746
 21
1579.921229272199
 31
0.0
 70
   128
  1
d31=10
 71
     5
 42
9.099999866922416
  3
ISO-25
100
AcDbAlignedDimension
 13
3601.432330845571
 23
1589.921229272199
 33
0.0
 14
3601.431444565327
 24
1579.921229272199
 34
0.0
 50
90.0
100
AcDbRotatedDimension
  0
DIMENSION
  5
44D
102
{ACAD_XDICTIONARY
360
5A7
102
}
102
{ACAD_REACTORS
330
450
102
}
330
1F
100
AcDbEntity
  8
ADSK_CONSTRAINTS
 60
     1
100
AcDbDimension
 10
3611.645826049077
 20
1559.621229272199
 30
0.0
 11
3611.645826049077
 21
1559.621229272199
 31
0.0
 70
   128
  1
d32=10
 71
     5
 42
10.0
  3
ISO-25
100
AcDbAlignedDimension
 13
3601.431444565327
 23
1569.6212292722
 33
0.0
 14
3601.431444565328
 24
1559.621229272199
 34
0.0
 50
90.0
100
AcDbRotatedDimension
  0
DIMENSION
  5
453
102
{ACAD_XDICTIONARY
360
5A9
102
}
102
{ACAD_REACTORS
330
456
102
}
330
1F
100
AcDbEntity
  8
ADSK_CONSTRAINTS
 60
     1
100
AcDbDimension
 10
3607.538276165869
 20
1539.321229272199
 30
0.0
 11
3607.538276165869
 21
1539.321229272199
 31
0.0
 70
   128
  1
d33=10
 71
     5
 42
9.99999989007415
  3
ISO-25
100
AcDbAlignedDimension
 13
3601.431444565328
 23
1549.321229272199
 33
0.0
 14
3601.240853781174
 24
1539.321229272199
 34
0.0
 50
90.0
100
AcDbRotatedDimension
  0
DIMENSION
  5
458
102
{ACAD_XDICTIONARY
360
5AB
102
}
102
{ACAD_REACTORS
330
45B
102
}
330
1F
100
AcDbEntity
  8
ADSK_CONSTRAINTS
 60
     1
100
AcDbDimension
 10
3612.399784791384
 20
1519.0212292722
 30
0.0
 11
3612.399784791384
 21
1519.0212292722
 31
0.0
 70
   128
  1
d34=10
 71
     5
 42
9.699999299532692
  3
ISO-25
100
AcDbAlignedDimension
 13
3601.240853781174
 23
1529.021229272199
 33
0.0
 14
3601.240853781174
 24
1519.0212292722
 34
0.0
 50
90.0
100
AcDbRotatedDimension
  0
DIMENSION
  5
45D
102
{ACAD_XDICTIONARY
360
5AD
102
}
102
{ACAD_REACTORS
330
460
102
}
330
1F
100
AcDbEntity
  8
ADSK_CONSTRAINTS
 60
     1
100
AcDbDimension
 10
3613.981583636363
 20
1498.4212292722
 30
0.0
 11
3613.981583636363
 21
1498.4212292722
 31
0.0
 70
   128
  1
d35=10.3
 71
     5
 42
10.29999995437811
  3
ISO-25
100
AcDbAlignedDimension
 13
3601.240853781174
 23
1508.7212292722
 33
0.0
 14
3601.229590982927
 24
1498.4212292722
 34
0.0
 50
90.0
100
AcDbRotatedDimension
  0
DIMENSION
  5
462
102
{ACAD_XDICTIONARY
360
5AF
102
}
102
{ACAD_REACTORS
330
465
102
}
330
1F
100
AcDbEntity
  8
ADSK_CONSTRAINTS
 60
     1
100
AcDbDimension
 10
3768.300145748148
 20
1589.773664307484
 30
0.0
 11
3768.300145748148
 21
1589.773664307484
 31
0.0
 70
   128
  1
d36=10
 71
     5
 42
10.00000000000159
  3
ISO-25
100
AcDbAlignedDimension
 13
3696.441013480893
 23
1600.221229272199
 33
0.0
 14
3696.441013480893
 24
1590.221229272199
 34
0.0
 50
90.0
100
AcDbRotatedDimension
  0
DIMENSION
  5
467
102
{ACAD_XDICTIONARY
360
5B1
102
}
102
{ACAD_REACTORS
330
46A
102
}
330
1F
100
AcDbEntity
  8
ADSK_CONSTRAINTS
 60
     1
100
AcDbDimension
 10
3770.491722229155
 20
1564.61065159002
 30
0.0
 11
3770.491722229155
 21
1564.61065159002
 31
0.0
 70
   128
  1
d37=10
 71
     5
 42
9.999999998212388
  3
ISO-25
100
AcDbAlignedDimension
 13
3696.441013480893
 23
1579.908772542306
 33
0.0
 14
3696.440824363266
 24
1569.908772542305
 34
0.0
 50
90.0
100
AcDbRotatedDimension
  0
DIMENSION
  5
46C
102
{ACAD_XDICTIONARY
360
5B3
102
}
102
{ACAD_REACTORS
330
46F
102
}
330
1F
100
AcDbEntity
  8
ADSK_CONSTRAINTS
 60
     1
100
AcDbDimension
 10
3779.441363962502
 20
1549.321437318203
 30
0.0
 11
3779.441363962502
 21
1549.321437318203
 31
0.0
 70
   128
  1
d38=10
 71
     5
 42
9.999999910951373
  3
ISO-25
100
AcDbAlignedDimension
 13
3696.229590982926
 23
1559.321437318203
 33
0.0
 14
3696.229590982926
 24
1549.321437318203
 34
0.0
 50
90.0
100
AcDbRotatedDimension
  0
DIMENSION
  5
471
102
{ACAD_XDICTIONARY
360
5B5
102
}
102
{ACAD_REACTORS
330
474
102
}
330
1F
100
AcDbEntity
  8
ADSK_CONSTRAINTS
 60
     1
100
AcDbDimension
 10
3777.232094266896
 20
1529.021229272199
 30
0.0
 11
3777.232094266896
 21
1529.021229272199
 31
0.0
 70
   128
  1
d39=10
 71
     5
 42
9.999996708768776
  3
ISO-25
100
AcDbAlignedDimension
 13
3696.229590982926
 23
1539.0212292722
 33
0.0
 14
3696.229590982927
 24
1529.021229272199
 34
0.0
 50
90.0
100
AcDbRotatedDimension
  0
DIMENSION
  5
476
102
{ACAD_XDICTIONARY
360
5B7
102
}
102
{ACAD_REACTORS
330
479
102
}
330
1F
100
AcDbEntity
  8
ADSK_CONSTRAINTS
 60
     1
100
AcDbDimension
 10
3780.398213591462
 20
1518.721229272199
 30
0.0
 11
3780.398213591462
 21
1508.7212292722
 31
0.0
 70
   128
  1
d40=10
 71
     5
 42
9.949660273984363
  3
ISO-25
100
AcDbAlignedDimension
 13
3696.229590982927
 23
1508.7212292722
 33
0.0
 14
3696.229590982927
 24
1518.721229272199
 34
0.0
 50
90.0
100
AcDbRotatedDimension
  0
LINE
  5
47D
102
{ACAD_REACTORS
330
47E
102
}
330
1F
100
AcDbEntity
  8
0
100
AcDbLine
 10
3696.211009265019
 20
1559.608772542305
 30
0.0
 11
3698.441879727624
 21
1559.608772542305
 31
0.0
  0
ENDSEC
  0
SECTION
  2
OBJECTS
  0
DICTIONARY
  5
C
330
0
100
AcDbDictionary
281
     1
  3
ACAD_ASSOCNETWORK
350
2D9
  3
ACAD_CIP_PREVIOUS_PRODUCT_INFO
350
216
  3
ACAD_COLOR
350
6B
  3
ACAD_DETAILVIEWSTYLE
350
21B
  3
ACAD_GROUP
350
D
  3
ACAD_LAYOUT
350
1A
  3
ACAD_MATERIAL
350
6A
  3
ACAD_MLEADERSTYLE
350
12D
  3
ACAD_MLINESTYLE
350
17
  3
ACAD_PLOTSETTINGS
350
19
  3
ACAD_PLOTSTYLENAME
350
E
  3
ACAD_SCALELIST
350
10C
  3
ACAD_SECTIONVIEWSTYLE
350
219
  3
ACAD_TABLESTYLE
350
7E
  3
ACAD_VISUALSTYLE
350
EF
  3
ACDB_RECOMPOSE_DATA
350
528
  3
AcDbVariableDictionary
350
5E
  3
AcDsDecomposeData
350
52E
  0
DICTIONARY
  5
1FF
330
2
100
AcDbDictionary
280
     1
281
     1
  3
ACAD_LAYERSTATES
360
200
  0
DICTIONARY
  5
13C
330
10
100
AcDbDictionary
280
     1
281
     1
  0
DICTIONARY
  5
1CE
330
1F
100
AcDbDictionary
280
     1
281
     1
  3
ACAD_ASSOCNETWORK
360
2D7
  0
DICTIONARY
  5
569
330
354
100
AcDbDictionary
280
     1
281
     1
  3
ACAD_XREC_ROUNDTRIP
360
56A
  0
DICTIONARY
  5
56B
330
35A
100
AcDbDictionary
280
     1
281
     1
  3
ACAD_XREC_ROUNDTRIP
360
56C
  0
DICTIONARY
  5
56D
330
35F
100
AcDbDictionary
280
     1
281
     1
  3
ACAD_XREC_ROUNDTRIP
360
56E
  0
DICTIONARY
  5
56F
330
364
100
AcDbDictionary
280
     1
281
     1
  3
ACAD_XREC_ROUNDTRIP
360
570
  0
DICTIONARY
  5
571
330
369
100
AcDbDictionary
280
     1
281
     1
  3
ACAD_XREC_ROUNDTRIP
360
572
  0
DICTIONARY
  5
573
330
36E
100
AcDbDictionary
280
     1
281
     1
  3
ACAD_XREC_ROUNDTRIP
360
574
  0
DICTIONARY
  5
575
330
373
100
AcDbDictionary
280
     1
281
     1
  3
ACAD_XREC_ROUNDTRIP
360
576
  0
DICTIONARY
  5
577
330
378
100
AcDbDictionary
280
     1
281
     1
  3
ACAD_XREC_ROUNDTRIP
360
578
  0
DICTIONARY
  5
579
330
37D
100
AcDbDictionary
280
     1
281
     1
  3
ACAD_XREC_ROUNDTRIP
360
57A
  0
DICTIONARY
  5
57B
330
382
100
AcDbDictionary
280
     1
281
     1
  3
ACAD_XREC_ROUNDTRIP
360
57C
  0
DICTIONARY
  5
57D
330
387
100
AcDbDictionary
280
     1
281
     1
  3
ACAD_XREC_ROUNDTRIP
360
57E
  0
DICTIONARY
  5
57F
330
39A
100
AcDbDictionary
280
     1
281
     1
  3
ACAD_XREC_ROUNDTRIP
360
580
  0
DICTIONARY
  5
581
330
39F
100
AcDbDictionary
280
     1
281
     1
  3
ACAD_XREC_ROUNDTRIP
360
582
  0
DICTIONARY
  5
583
330
3A6
100
AcDbDictionary
280
     1
281
     1
  3
ACAD_XREC_ROUNDTRIP
360
584
  0
DICTIONARY
  5
585
330
3AB
100
AcDbDictionary
280
     1
281
     1
  3
ACAD_XREC_ROUNDTRIP
360
586
  0
DICTIONARY
  5
587
330
3B6
100
AcDbDictionary
280
     1
281
     1
  3
ACAD_XREC_ROUNDTRIP
360
588
  0
DICTIONARY
  5
589
330
3C7
100
AcDbDictionary
280
     1
281
     1
  3
ACAD_XREC_ROUNDTRIP
360
58A
  0
DICTIONARY
  5
58B
330
3CC
100
AcDbDictionary
280
     1
281
     1
  3
ACAD_XREC_ROUNDTRIP
360
58C
  0
DICTIONARY
  5
58D
330
3E4
100
AcDbDictionary
280
     1
281
     1
  3
ACAD_XREC_ROUNDTRIP
360
58E
  0
DICTIONARY
  5
58F
330
3EF
100
AcDbDictionary
280
     1
281
     1
  3
ACAD_XREC_ROUNDTRIP
360
590
  0
DICTIONARY
  5
591
330
40A
100
AcDbDictionary
280
     1
281
     1
  3
ACAD_XREC_ROUNDTRIP
360
592
  0
DICTIONARY
  5
593
330
411
100
AcDbDictionary
280
     1
281
     1
  3
ACAD_XREC_ROUNDTRIP
360
594
  0
DICTIONARY
  5
595
330
416
100
AcDbDictionary
280
     1
281
     1
  3
ACAD_XREC_ROUNDTRIP
360
596
  0
DICTIONARY
  5
597
330
41B
100
AcDbDictionary
280
     1
281
     1
  3
ACAD_XREC_ROUNDTRIP
360
598
  0
DICTIONARY
  5
599
330
420
100
AcDbDictionary
280
     1
281
     1
  3
ACAD_XREC_ROUNDTRIP
360
59A
  0
DICTIONARY
  5
59B
330
42A
100
AcDbDictionary
280
     1
281
     1
  3
ACAD_XREC_ROUNDTRIP
360
59C
  0
DICTIONARY
  5
59D
330
42F
100
AcDbDictionary
280
     1
281
     1
  3
ACAD_XREC_ROUNDTRIP
360
59E
  0
DICTIONARY
  5
59F
330
434
100
AcDbDictionary
280
     1
281
     1
  3
ACAD_XREC_ROUNDTRIP
360
5A0
  0
DICTIONARY
  5
5A1
330
439
100
AcDbDictionary
280
     1
281
     1
  3
ACAD_XREC_ROUNDTRIP
360
5A2
  0
DICTIONARY
  5
5A3
330
43E
100
AcDbDictionary
280
     1
281
     1
  3
ACAD_XREC_ROUNDTRIP
360
5A4
  0
DICTIONARY
  5
5A5
330
448
100
AcDbDictionary
280
     1
281
     1
  3
ACAD_XREC_ROUNDTRIP
360
5A6
  0
DICTIONARY
  5
5A7
330
44D
100
AcDbDictionary
280
     1
281
     1
  3
ACAD_XREC_ROUNDTRIP
360
5A8
  0
DICTIONARY
  5
5A9
330
453
100
AcDbDictionary
280
     1
281
     1
  3
ACAD_XREC_ROUNDTRIP
360
5AA
  0
DICTIONARY
  5
5AB
330
458
100
AcDbDictionary
280
     1
281
     1
  3
ACAD_XREC_ROUNDTRIP
360
5AC
  0
DICTIONARY
  5
5AD
330
45D
100
AcDbDictionary
280
     1
281
     1
  3
ACAD_XREC_ROUNDTRIP
360
5AE
  0
DICTIONARY
  5
5AF
330
462
100
AcDbDictionary
280
     1
281
     1
  3
ACAD_XREC_ROUNDTRIP
360
5B0
  0
DICTIONARY
  5
5B1
330
467
100
AcDbDictionary
280
     1
281
     1
  3
ACAD_XREC_ROUNDTRIP
360
5B2
  0
DICTIONARY
  5
5B3
330
46C
100
AcDbDictionary
280
     1
281
     1
  3
ACAD_XREC_ROUNDTRIP
360
5B4
  0
DICTIONARY
  5
5B5
330
471
100
AcDbDictionary
280
     1
281
     1
  3
ACAD_XREC_ROUNDTRIP
360
5B6
  0
DICTIONARY
  5
5B7
330
476
100
AcDbDictionary
280
     1
281
     1
  3
ACAD_XREC_ROUNDTRIP
360
5B8
  0
DICTIONARY
  5
2D9
102
{ACAD_REACTORS
330
C
102
}
330
C
100
AcDbDictionary
281
     1
  3
ACAD_ASSOCNETWORK
350
2DA
  0
XRECORD
  5
216
102
{ACAD_REACTORS
330
C
102
}
330
C
100
AcDbXrecord
280
     1
300
ACD
300
2018
300
ACD_F_S
  0
DICTIONARY
  5
6B
102
{ACAD_REACTORS
330
C
102
}
330
C
100
AcDbDictionary
281
     1
  0
DICTIONARY
  5
21B
102
{ACAD_REACTORS
330
C
102
}
330
C
100
AcDbDictionary
281
     1
  3
Metric50
350
21C
  0
DICTIONARY
  5
D
102
{ACAD_REACTORS
330
C
102
}
330
C
100
AcDbDictionary
281
     1
  0
DICTIONARY
  5
1A
102
{ACAD_REACTORS
330
C
102
}
330
C
100
AcDbDictionary
281
     1
  3
Model
350
22
  3
Presentación1
350
D3
  3
Presentación2
350
D7
  0
DICTIONARY
  5
6A
102
{ACAD_REACTORS
330
C
102
}
330
C
100
AcDbDictionary
281
     1
  3
ByBlock
350
ED
  3
ByLayer
350
EC
  3
Global
350
EE
  0
DICTIONARY
  5
12D
102
{ACAD_REACTORS
330
C
102
}
330
C
100
AcDbDictionary
281
     1
  3
Anotativo
350
13B
  3
Standard
350
12E
  0
DICTIONARY
  5
17
102
{ACAD_REACTORS
330
C
102
}
330
C
100
AcDbDictionary
281
     1
  3
Standard
350
18
  0
DICTIONARY
  5
19
102
{ACAD_REACTORS
330
C
102
}
330
C
100
AcDbDictionary
281
     1
  0
ACDBDICTIONARYWDFLT
  5
E
102
{ACAD_REACTORS
330
C
102
}
330
C
100
AcDbDictionary
281
     1
  3
Normal
350
F
100
AcDbDictionaryWithDefault
340
F
  0
DICTIONARY
  5
10C
102
{ACAD_REACTORS
330
C
102
}
330
C
100
AcDbDictionary
281
     1
  3
A0
350
10D
  3
A1
350
1BE
  3
A2
350
1BF
  3
A3
350
1C0
  3
A4
350
1C1
  3
A5
350
1C2
  3
A6
350
1C3
  3
A7
350
1C4
  3
A8
350
1C5
  3
A9
350
1C6
  3
B0
350
1C7
  3
B1
350
1C8
  3
B2
350
1C9
  3
B3
350
1CA
  3
B4
350
1CB
  3
B5
350
1CC
  3
B6
350
1CD
  0
DICTIONARY
  5
219
102
{ACAD_REACTORS
330
C
102
}
330
C
100
AcDbDictionary
281
     1
  3
Metric50
350
21A
  0
DICTIONARY
  5
7E
102
{ACAD_REACTORS
330
C
102
}
330
C
100
AcDbDictionary
281
     1
  3
Standard
350
7F
  0
DICTIONARY
  5
EF
102
{ACAD_REACTORS
330
C
102
}
330
C
100
AcDbDictionary
281
     1
  3
2dWireframe
350
F5
  3
Basic
350
F4
  3
Brighten
350
FB
  3
ColorChange
350
FF
  3
Conceptual
350
F8
  3
Dim
350
FA
  3
EdgeColorOff
350
1E6
  3
Facepattern
350
FE
  3
Flat
350
F0
  3
FlatWithEdges
350
F1
  3
Gouraud
350
F2
  3
GouraudWithEdges
350
F3
  3
Hidden
350
F7
  3
JitterOff
350
1E4
  3
Linepattern
350
FD
  3
OverhangOff
350
1E5
  3
Realistic
350
F9
  3
Shaded
350
1F3
  3
Shaded with edges
350
1F2
  3
Shades of Gray
350
1EF
  3
Sketchy
350
1F0
  3
Thicken
350
FC
  3
Wireframe
350
F6
  3
X-Ray
350
1F1
  0
XRECORD
  5
528
102
{ACAD_REACTORS
330
C
102
}
330
C
100
AcDbXrecord
280
     1
 90
        1
330
7F
  0
DICTIONARY
  5
5E
102
{ACAD_REACTORS
330
C
102
}
330
C
100
AcDbDictionary
281
     1
  3
CANNOSCALE
350
146
  3
CENTEREXE
350
259
  3
CENTERLTYPEFILE
350
25A
  3
CMLEADERSTYLE
350
145
  3
CTABLESTYLE
350
84
  3
CVIEWDETAILSTYLE
350
227
  3
CVIEWSECTIONSTYLE
350
228
  3
DIMASSOC
350
5F
  3
HIDETEXT
350
63
  3
LAYEREVAL
350
1AE
  3
LAYERNOTIFY
350
1AF
  3
LIGHTINGUNITS
350
523
  3
MSLTSCALE
350
522
  3
PSOLHEIGHT
350
525
  3
PSOLWIDTH
350
524
  3
XCLIPFRAME
350
526
  0
DICTIONARY
  5
52E
102
{ACAD_REACTORS
330
C
102
}
330
C
100
AcDbDictionary
281
     1
  3
AcDsRecords
350
530
  3
AcDsSchemas
350
52F
1001
ACAD
1070
     2
  0
DICTIONARY
  5
200
102
{ACAD_REACTORS
330
1FF
102
}
330
1FF
100
AcDbDictionary
281
     1
  0
DICTIONARY
  5
2D7
102
{ACAD_REACTORS
330
1CE
102
}
330
1CE
100
AcDbDictionary
281
     1
  3
ACAD_ASSOCNETWORK
350
2D8
  0
XRECORD
  5
56A
102
{ACAD_REACTORS
330
569
102
}
330
569
100
AcDbXrecord
280
     1
102
ISDYNAMIC
 70
     1
  0
XRECORD
  5
56C
102
{ACAD_REACTORS
330
56B
102
}
330
56B
100
AcDbXrecord
280
     1
102
ISDYNAMIC
 70
     1
  0
XRECORD
  5
56E
102
{ACAD_REACTORS
330
56D
102
}
330
56D
100
AcDbXrecord
280
     1
102
ISDYNAMIC
 70
     1
  0
XRECORD
  5
570
102
{ACAD_REACTORS
330
56F
102
}
330
56F
100
AcDbXrecord
280
     1
102
ISDYNAMIC
 70
     1
  0
XRECORD
  5
572
102
{ACAD_REACTORS
330
571
102
}
330
571
100
AcDbXrecord
280
     1
102
ISDYNAMIC
 70
     1
  0
XRECORD
  5
574
102
{ACAD_REACTORS
330
573
102
}
330
573
100
AcDbXrecord
280
     1
102
ISDYNAMIC
 70
     1
  0
XRECORD
  5
576
102
{ACAD_REACTORS
330
575
102
}
330
575
100
AcDbXrecord
280
     1
102
ISDYNAMIC
 70
     1
  0
XRECORD
  5
578
102
{ACAD_REACTORS
330
577
102
}
330
577
100
AcDbXrecord
280
     1
102
ISDYNAMIC
 70
     1
  0
XRECORD
  5
57A
102
{ACAD_REACTORS
330
579
102
}
330
579
100
AcDbXrecord
280
     1
102
ISDYNAMIC
 70
     1
  0
XRECORD
  5
57C
102
{ACAD_REACTORS
330
57B
102
}
330
57B
100
AcDbXrecord
280
     1
102
ISDYNAMIC
 70
     1
  0
XRECORD
  5
57E
102
{ACAD_REACTORS
330
57D
102
}
330
57D
100
AcDbXrecord
280
     1
102
ISDYNAMIC
 70
     1
  0
XRECORD
  5
580
102
{ACAD_REACTORS
330
57F
102
}
330
57F
100
AcDbXrecord
280
     1
102
ISDYNAMIC
 70
     1
  0
XRECORD
  5
582
102
{ACAD_REACTORS
330
581
102
}
330
581
100
AcDbXrecord
280
     1
102
ISDYNAMIC
 70
     1
  0
XRECORD
  5
584
102
{ACAD_REACTORS
330
583
102
}
330
583
100
AcDbXrecord
280
     1
102
ISDYNAMIC
 70
     1
  0
XRECORD
  5
586
102
{ACAD_REACTORS
330
585
102
}
330
585
100
AcDbXrecord
280
     1
102
ISDYNAMIC
 70
     1
  0
XRECORD
  5
588
102
{ACAD_REACTORS
330
587
102
}
330
587
100
AcDbXrecord
280
     1
102
ISDYNAMIC
 70
     1
  0
XRECORD
  5
58A
102
{ACAD_REACTORS
330
589
102
}
330
589
100
AcDbXrecord
280
     1
102
ISDYNAMIC
 70
     1
  0
XRECORD
  5
58C
102
{ACAD_REACTORS
330
58B
102
}
330
58B
100
AcDbXrecord
280
     1
102
ISDYNAMIC
 70
     1
  0
XRECORD
  5
58E
102
{ACAD_REACTORS
330
58D
102
}
330
58D
100
AcDbXrecord
280
     1
102
ISDYNAMIC
 70
     1
  0
XRECORD
  5
590
102
{ACAD_REACTORS
330
58F
102
}
330
58F
100
AcDbXrecord
280
     1
102
ISDYNAMIC
 70
     1
  0
XRECORD
  5
592
102
{ACAD_REACTORS
330
591
102
}
330
591
100
AcDbXrecord
280
     1
102
ISDYNAMIC
 70
     1
  0
XRECORD
  5
594
102
{ACAD_REACTORS
330
593
102
}
330
593
100
AcDbXrecord
280
     1
102
ISDYNAMIC
 70
     1
  0
XRECORD
  5
596
102
{ACAD_REACTORS
330
595
102
}
330
595
100
AcDbXrecord
280
     1
102
ISDYNAMIC
 70
     1
  0
XRECORD
  5
598
102
{ACAD_REACTORS
330
597
102
}
330
597
100
AcDbXrecord
280
     1
102
ISDYNAMIC
 70
     1
  0
XRECORD
  5
59A
102
{ACAD_REACTORS
330
599
102
}
330
599
100
AcDbXrecord
280
     1
102
ISDYNAMIC
 70
     1
  0
XRECORD
  5
59C
102
{ACAD_REACTORS
330
59B
102
}
330
59B
100
AcDbXrecord
280
     1
102
ISDYNAMIC
 70
     1
  0
XRECORD
  5
59E
102
{ACAD_REACTORS
330
59D
102
}
330
59D
100
AcDbXrecord
280
     1
102
ISDYNAMIC
 70
     1
  0
XRECORD
  5
5A0
102
{ACAD_REACTORS
330
59F
102
}
330
59F
100
AcDbXrecord
280
     1
102
ISDYNAMIC
 70
     1
  0
XRECORD
  5
5A2
102
{ACAD_REACTORS
330
5A1
102
}
330
5A1
100
AcDbXrecord
280
     1
102
ISDYNAMIC
 70
     1
  0
XRECORD
  5
5A4
102
{ACAD_REACTORS
330
5A3
102
}
330
5A3
100
AcDbXrecord
280
     1
102
ISDYNAMIC
 70
     1
  0
XRECORD
  5
5A6
102
{ACAD_REACTORS
330
5A5
102
}
330
5A5
100
AcDbXrecord
280
     1
102
ISDYNAMIC
 70
     1
  0
XRECORD
  5
5A8
102
{ACAD_REACTORS
330
5A7
102
}
330
5A7
100
AcDbXrecord
280
     1
102
ISDYNAMIC
 70
     1
  0
XRECORD
  5
5AA
102
{ACAD_REACTORS
330
5A9
102
}
330
5A9
100
AcDbXrecord
280
     1
102
ISDYNAMIC
 70
     1
  0
XRECORD
  5
5AC
102
{ACAD_REACTORS
330
5AB
102
}
330
5AB
100
AcDbXrecord
280
     1
102
ISDYNAMIC
 70
     1
  0
XRECORD
  5
5AE
102
{ACAD_REACTORS
330
5AD
102
}
330
5AD
100
AcDbXrecord
280
     1
102
ISDYNAMIC
 70
     1
  0
XRECORD
  5
5B0
102
{ACAD_REACTORS
330
5AF
102
}
330
5AF
100
AcDbXrecord
280
     1
102
ISDYNAMIC
 70
     1
  0
XRECORD
  5
5B2
102
{ACAD_REACTORS
330
5B1
102
}
330
5B1
100
AcDbXrecord
280
     1
102
ISDYNAMIC
 70
     1
  0
XRECORD
  5
5B4
102
{ACAD_REACTORS
330
5B3
102
}
330
5B3
100
AcDbXrecord
280
     1
102
ISDYNAMIC
 70
     1
  0
XRECORD
  5
5B6
102
{ACAD_REACTORS
330
5B5
102
}
330
5B5
100
AcDbXrecord
280
     1
102
ISDYNAMIC
 70
     1
  0
XRECORD
  5
5B8
102
{ACAD_REACTORS
330
5B7
102
}
330
5B7
100
AcDbXrecord
280
     1
102
ISDYNAMIC
 70
     1
  0
ACDBASSOCNETWORK
  5
2DA
102
{ACAD_REACTORS
330
2D9
102
}
330
2D9
100
AcDbAssocAction
 90
        1
 90
        0
330
0
360
0
 90
        0
 90
        0
 90
        0
100
AcDbAssocNetwork
 90
        0
 90
        1
 90
        1
330
2D8
 90
        0
  0
ACDBDETAILVIEWSTYLE
  5
21C
102
{ACAD_XDICTIONARY
360
567
102
}
102
{ACAD_REACTORS
330
21B
102
}
330
21B
100
AcDbModelDocViewStyle
 70
     0
  3
Metric50
290
     0
100
AcDbDetailViewStyle
 70
     0
 71
     0
 90
        3
 71
     1
340
11
 62
   256
 40
5.0
340
0
 62
   256
 40
5.0
300

 40
0.0
280
     1
 71
     2
340
16
 90
       25
 62
   256
 71
     3
340
11
 62
   256
 40
5.0
 90
        0
 40
15.0
 90
        1
300
%<\AcVar ViewDetailId>% (%<\AcVar ViewScale \f "%sn">%)
 71
     4
340
16
 90
       25
 62
   256
340
16
 90
       25
 62
   256
280
     0
  0
LAYOUT
  5
22
102
{ACAD_XDICTIONARY
360
205
102
}
102
{ACAD_REACTORS
330
1A
102
}
330
1A
100
AcDbPlotSettings
  1

  2
none_device
  4
ISO_A4_(210.00_x_297.00_MM)
  6

 40
7.5
 41
20.0
 42
7.5
 43
20.0
 44
210.0
 45
297.0
 46
11.54999923706054
 47
-13.65000009536743
 48
0.0
 49
0.0
140
0.0
141
0.0
142
1.0
143
8.704084754739808
 70
 11952
 72
     1
 73
     0
 74
     0
  7

 75
     0
147
0.1148885871608098
 76
     0
 77
     2
 78
   300
148
0.0
149
0.0
100
AcDbLayout
  1
Model
 70
     1
 71
     0
 10
0.0
 20
0.0
 11
12.0
 21
9.0
 12
0.0
 22
0.0
 32
0.0
 14
0.0
 24
0.0
 34
0.0
 15
0.0
 25
0.0
 35
0.0
146
0.0
 13
0.0
 23
0.0
 33
0.0
 16
1.0
 26
0.0
 36
0.0
 17
0.0
 27
1.0
 37
0.0
 76
     0
330
1F
331
EA
1001
ACAD_PSEXT
1000
None
1000
None
1000
Not applicable
1000
The layout will not be plotted unless a new plotter configuration name is selected.
1070
     0
  0
LAYOUT
  5
D3
102
{ACAD_REACTORS
330
1A
102
}
330
1A
100
AcDbPlotSettings
  1

  2
C:\Documents and Settings\basas\Application Data\Autodesk\AutoCAD 2005\R16.1\enu\plotters\Default Windows System Printer.pc3
  4

  6

 40
0.0
 41
0.0
 42
0.0
 43
0.0
 44
0.0
 45
0.0
 46
0.0
 47
0.0
 48
0.0
 49
0.0
140
0.0
141
0.0
142
1.0
143
1.0
 70
   688
 72
     0
 73
     0
 74
     5
  7

 75
    16
147
1.0
 76
     0
 77
     2
 78
   300
148
0.0
149
0.0
100
AcDbLayout
  1
Presentación1
 70
     1
 71
     1
 10
0.0
 20
0.0
 11
12.0
 21
9.0
 12
0.0
 22
0.0
 32
0.0
 14
0.0
 24
0.0
 34
0.0
 15
0.0
 25
0.0
 35
0.0
146
0.0
 13
0.0
 23
0.0
 33
0.0
 16
1.0
 26
0.0
 36
0.0
 17
0.0
 27
1.0
 37
0.0
 76
     0
330
D2
  0
LAYOUT
  5
D7
102
{ACAD_REACTORS
330
1A
102
}
330
1A
100
AcDbPlotSettings
  1

  2
C:\Documents and Settings\basas\Application Data\Autodesk\AutoCAD 2005\R16.1\enu\plotters\Default Windows System Printer.pc3
  4

  6

 40
0.0
 41
0.0
 42
0.0
 43
0.0
 44
0.0
 45
0.0
 46
0.0
 47
0.0
 48
0.0
 49
0.0
140
0.0
141
0.0
142
1.0
143
1.0
 70
   688
 72
     0
 73
     0
 74
     5
  7

 75
    16
147
1.0
 76
     0
 77
     2
 78
   300
148
0.0
149
0.0
100
AcDbLayout
  1
Presentación2
 70
     1
 71
     2
 10
0.0
 20
0.0
 11
12.0
 21
9.0
 12
0.0
 22
0.0
 32
0.0
 14
0.0
 24
0.0
 34
0.0
 15
0.0
 25
0.0
 35
0.0
146
0.0
 13
0.0
 23
0.0
 33
0.0
 16
1.0
 26
0.0
 36
0.0
 17
0.0
 27
1.0
 37
0.0
 76
     0
330
D6
  0
MATERIAL
  5
ED
102
{ACAD_XDICTIONARY
360
1F9
102
}
102
{ACAD_REACTORS
330
6A
102
}
330
6A
100
AcDbMaterial
  1
ByBlock
  0
MATERIAL
  5
EC
102
{ACAD_XDICTIONARY
360
1F7
102
}
102
{ACAD_REACTORS
330
6A
102
}
330
6A
100
AcDbMaterial
  1
ByLayer
  0
MATERIAL
  5
EE
102
{ACAD_XDICTIONARY
360
173
102
}
102
{ACAD_REACTORS
330
6A
102
}
330
6A
100
AcDbMaterial
  1
Global
 43
0.0007999999797903
 43
0.0
 43
0.0
 43
0.0
 43
0.0
 43
0.0007999999797903
 43
0.0
 43
0.0
 43
0.0
 43
0.0
 43
1.0
 43
0.0
 43
0.0
 43
0.0
 43
0.0
 43
1.0
 49
0.0007999999797903
 49
0.0
 49
0.0
 49
0.0
 49
0.0
 49
0.0007999999797903
 49
0.0
 49
0.0
 49
0.0
 49
0.0
 49
1.0
 49
0.0
 49
0.0
 49
0.0
 49
0.0
 49
1.0
142
0.0007999999797903
142
0.0
142
0.0
142
0.0
142
0.0
142
0.0007999999797903
142
0.0
142
0.0
142
0.0
142
0.0
142
1.0
142
0.0
142
0.0
142
0.0
142
0.0
142
1.0
144
0.0007999999797903
144
0.0
144
0.0
144
0.0
144
0.0
144
0.0007999999797903
144
0.0
144
0.0
144
0.0
144
0.0
144
1.0
144
0.0
144
0.0
144
0.0
144
0.0
144
1.0
1001
ACAD
1070
    -1
1070
     3
1070
     0
1000

1071
        0
1070
     0
  0
MLEADERSTYLE
  5
13B
102
{ACAD_REACTORS
330
12D
102
}
330
12D
100
AcDbMLeaderStyle
170
     2
171
     1
172
     0
 90
        2
 40
0.0
 41
0.0
173
     1
 91
-1056964608
340
14
 92
       -2
290
     1
 42
2.0
291
     1
 43
8.0
  3
Standard
 44
4.0
300

342
11
174
     1
178
     1
175
     1
176
     0
 93
-1056964608
 45
4.0
292
     0
297
     0
 46
4.0
 94
-1056964608
 47
1.0
 49
1.0
140
1.0
293
     1
141
0.0
294
     1
177
     0
142
1.0
295
     0
296
     1
143
3.75
1001
ACAD_MLEADERVER
1070
     2
  0
MLEADERSTYLE
  5
12E
102
{ACAD_REACTORS
330
12D
102
}
330
12D
100
AcDbMLeaderStyle
170
     2
171
     1
172
     0
 90
        2
 40
0.0
 41
0.0
173
     1
 91
-1056964608
340
14
 92
       -2
290
     1
 42
2.0
291
     1
 43
8.0
  3
Standard
 44
4.0
300

342
11
174
     1
178
     1
175
     1
176
     0
 93
-1056964608
 45
4.0
292
     0
297
     0
 46
4.0
 94
-1056964608
 47
1.0
 49
1.0
140
1.0
293
     1
141
0.0
294
     1
177
     0
142
1.0
295
     0
296
     0
143
3.75
1001
ACAD_MLEADERVER
1070
     2
  0
MLINESTYLE
  5
18
102
{ACAD_REACTORS
330
17
102
}
330
17
100
AcDbMlineStyle
  2
STANDARD
 70
     0
  3

 62
   256
 51
90.0
 52
90.0
 71
     2
 49
0.5
 62
   256
  6
BYLAYER
 49
-0.5
 62
   256
  6
BYLAYER
  0
ACDBPLACEHOLDER
  5
F
102
{ACAD_REACTORS
330
E
102
}
330
E
  0
SCALE
  5
10D
102
{ACAD_REACTORS
330
10C
102
}
330
10C
100
AcDbScale
 70
     0
300
1:1
140
1.0
141
1.0
290
     1
  0
SCALE
  5
1BE
102
{ACAD_REACTORS
330
10C
102
}
330
10C
100
AcDbScale
 70
     0
300
1:2
140
1.0
141
2.0
290
     0
  0
SCALE
  5
1BF
102
{ACAD_REACTORS
330
10C
102
}
330
10C
100
AcDbScale
 70
     0
300
1:4
140
1.0
141
4.0
290
     0
  0
SCALE
  5
1C0
102
{ACAD_REACTORS
330
10C
102
}
330
10C
100
AcDbScale
 70
     0
300
1:5
140
1.0
141
5.0
290
     0
  0
SCALE
  5
1C1
102
{ACAD_REACTORS
330
10C
102
}
330
10C
100
AcDbScale
 70
     0
300
1:8
140
1.0
141
8.0
290
     0
  0
SCALE
  5
1C2
102
{ACAD_REACTORS
330
10C
102
}
330
10C
100
AcDbScale
 70
     0
300
1:10
140
1.0
141
10.0
290
     0
  0
SCALE
  5
1C3
102
{ACAD_REACTORS
330
10C
102
}
330
10C
100
AcDbScale
 70
     0
300
1:16
140
1.0
141
16.0
290
     0
  0
SCALE
  5
1C4
102
{ACAD_REACTORS
330
10C
102
}
330
10C
100
AcDbScale
 70
     0
300
1:20
140
1.0
141
20.0
290
     0
  0
SCALE
  5
1C5
102
{ACAD_REACTORS
330
10C
102
}
330
10C
100
AcDbScale
 70
     0
300
1:30
140
1.0
141
30.0
290
     0
  0
SCALE
  5
1C6
102
{ACAD_REACTORS
330
10C
102
}
330
10C
100
AcDbScale
 70
     0
300
1:40
140
1.0
141
40.0
290
     0
  0
SCALE
  5
1C7
102
{ACAD_REACTORS
330
10C
102
}
330
10C
100
AcDbScale
 70
     0
300
1:50
140
1.0
141
50.0
290
     0
  0
SCALE
  5
1C8
102
{ACAD_REACTORS
330
10C
102
}
330
10C
100
AcDbScale
 70
     0
300
1:100
140
1.0
141
100.0
290
     0
  0
SCALE
  5
1C9
102
{ACAD_REACTORS
330
10C
102
}
330
10C
100
AcDbScale
 70
     0
300
2:1
140
2.0
141
1.0
290
     0
  0
SCALE
  5
1CA
102
{ACAD_REACTORS
330
10C
102
}
330
10C
100
AcDbScale
 70
     0
300
4:1
140
4.0
141
1.0
290
     0
  0
SCALE
  5
1CB
102
{ACAD_REACTORS
330
10C
102
}
330
10C
100
AcDbScale
 70
     0
300
8:1
140
8.0
141
1.0
290
     0
  0
SCALE
  5
1CC
102
{ACAD_REACTORS
330
10C
102
}
330
10C
100
AcDbScale
 70
     0
300
10:1
140
10.0
141
1.0
290
     0
  0
SCALE
  5
1CD
102
{ACAD_REACTORS
330
10C
102
}
330
10C
100
AcDbScale
 70
     0
300
100:1
140
100.0
141
1.0
290
     0
  0
ACDBSECTIONVIEWSTYLE
  5
21A
102
{ACAD_XDICTIONARY
360
565
102
}
102
{ACAD_REACTORS
330
219
102
}
330
219
100
AcDbModelDocViewStyle
 70
     0
  3
Metric50
290
     0
100
AcDbSectionViewStyle
 70
     0
 71
     0
 90
      102
 71
     1
340
11
 62
   256
 40
5.0
340
0
340
0
 62
   256
 40
5.0
300
I, O, Q, S, X, Z
 40
10.0
 90
        0
 40
2.5
 90
        0
 71
     2
340
16
 90
       25
 62
   256
340
16
 90
       50
 62
   256
 40
5.0
 40
2.5
 40
5.0
 71
     3
340
11
 62
   256
 40
5.0
 90
        0
 40
15.0
 90
        1
300
%<\AcVar ViewSectionStartId>%-%<\AcVar ViewSectionEndId>% (%<\AcVar ViewScale \f "%sn">%)
 71
     4
 62
   256
 62
   257
300
ANSI31
 40
1.0
 90
        0
290
     0
290
     0
 90
        6
 40
0.0
 40
1.570796326794896
 40
0.2617993877991494
 40
1.308996938995747
 40
-0.2617993877991494
 40
1.832595714594046
  0
TABLESTYLE
  5
7F
102
{ACAD_XDICTIONARY
360
162
102
}
102
{ACAD_REACTORS
330
7E
102
}
330
7E
100
AcDbTableStyle
  3
Standard
 70
     0
 71
     0
 40
1.5
 41
1.5
280
     0
281
     0
  7
Standard
140
4.5
170
     2
 62
     0
 63
     7
283
     0
274
    -2
284
     1
 64
     0
275
    -2
285
     1
 65
     0
276
    -2
286
     1
 66
     0
277
    -2
287
     1
 67
     0
278
    -2
288
     1
 68
     0
279
    -2
289
     1
 69
     0
  7
Standard
140
6.0
170
     5
 62
     0
 63
     7
283
     0
274
    -2
284
     1
 64
     0
275
    -2
285
     1
 65
     0
276
    -2
286
     1
 66
     0
277
    -2
287
     1
 67
     0
278
    -2
288
     1
 68
     0
279
    -2
289
     1
 69
     0
  7
Standard
140
4.5
170
     5
 62
     0
 63
     7
283
     0
274
    -2
284
     1
 64
     0
275
    -2
285
     1
 65
     0
276
    -2
286
     1
 66
     0
277
    -2
287
     1
 67
     0
278
    -2
288
     1
 68
     0
279
    -2
289
     1
 69
     0
  0
VISUALSTYLE
  5
F5
102
{ACAD_XDICTIONARY
360
53F
102
}
102
{ACAD_REACTORS
330
EF
102
}
330
EF
100
AcDbVisualStyle
  2
2dWireframe
 70
     4
 71
     0
 72
     2
 73
     1
 90
        0
 40
-0.6
 41
-30.0
 62
     5
 63
     7
421
 16777215
 74
     1
 91
        4
 64
     7
 65
   257
 75
     1
175
     1
 42
1.0
 92
        0
 66
   257
 43
1.0
 76
     1
 77
     6
 78
     2
 67
     7
 79
     5
170
     0
171
     0
290
     0
174
     0
 93
        1
 44
0.0
173
     0
291
     0
 45
0.0
1001
ACAD
1000
AcDbSavedByObjectVersion
1070
     0
  0
VISUALSTYLE
  5
F4
102
{ACAD_XDICTIONARY
360
53D
102
}
102
{ACAD_REACTORS
330
EF
102
}
330
EF
100
AcDbVisualStyle
  2
Basic
 70
     7
 71
     1
 72
     0
 73
     1
 90
        0
 40
-0.6
 41
-30.0
 62
     5
 63
     7
421
 16777215
 74
     0
 91
        4
 64
     7
 65
   257
 75
     1
175
     1
 42
1.0
 92
        8
 66
     7
 43
1.0
 76
     1
 77
     6
 78
     2
 67
     7
 79
     5
170
     0
171
     0
290
     0
174
     0
 93
        1
 44
0.0
173
     0
291
     1
 45
0.0
1001
ACAD
1000
AcDbSavedByObjectVersion
1070
     0
  0
VISUALSTYLE
  5
FB
102
{ACAD_XDICTIONARY
360
54B
102
}
102
{ACAD_REACTORS
330
EF
102
}
330
EF
100
AcDbVisualStyle
  2
Brighten
 70
    12
 71
     2
 72
     2
 73
     1
 90
        0
 40
-0.6
 41
-30.0
 62
     5
 63
     7
421
 16777215
 74
     1
 91
        4
 64
     7
 65
   257
 75
     1
175
     1
 42
1.0
 92
        8
 66
     7
 43
1.0
 76
     1
 77
     6
 78
     2
 67
     7
 79
     5
170
     0
171
     0
290
     0
174
     0
 93
        1
 44
50.0
173
     0
291
     1
 45
0.0
1001
ACAD
1000
AcDbSavedByObjectVersion
1070
     0
  0
VISUALSTYLE
  5
FF
102
{ACAD_XDICTIONARY
360
553
102
}
102
{ACAD_REACTORS
330
EF
102
}
330
EF
100
AcDbVisualStyle
  2
ColorChange
 70
    16
 71
     2
 72
     2
 73
     3
 90
        0
 40
-0.6
 41
-30.0
 62
     5
 63
     8
421
  8421504
 74
     1
 91
        4
 64
     7
 65
   257
 75
     1
175
     1
 42
1.0
 92
        8
 66
     8
424
  8421504
 43
1.0
 76
     1
 77
     6
 78
     2
 67
     7
 79
     5
170
     0
171
     0
290
     0
174
     0
 93
        1
 44
0.0
173
     0
291
     1
 45
0.0
1001
ACAD
1000
AcDbSavedByObjectVersion
1070
     0
  0
VISUALSTYLE
  5
F8
102
{ACAD_XDICTIONARY
360
545
102
}
102
{ACAD_REACTORS
330
EF
102
}
330
EF
100
AcDbVisualStyle
  2
Conceptual
 70
     9
 71
     3
 72
     2
 73
     1
 90
        0
 40
-0.6
 41
-30.0
 62
     5
 63
     7
421
 16777215
 74
     2
 91
        2
 64
     7
 65
   257
 75
     1
175
     1
 42
40.0
 92
        8
 66
     7
 43
1.0
 76
     1
 77
     6
 78
     2
 67
     7
 79
     3
170
     0
171
     0
290
     0
174
     0
 93
        1
 44
0.0
173
     0
291
     0
 45
0.0
1001
ACAD
1000
AcDbSavedByObjectVersion
1070
     0
  0
VISUALSTYLE
  5
FA
102
{ACAD_XDICTIONARY
360
549
102
}
102
{ACAD_REACTORS
330
EF
102
}
330
EF
100
AcDbVisualStyle
  2
Dim
 70
    11
 71
     2
 72
     2
 73
     1
 90
        0
 40
-0.6
 41
-30.0
 62
     5
 63
     7
421
 16777215
 74
     1
 91
        4
 64
     7
 65
   257
 75
     1
175
     1
 42
1.0
 92
        8
 66
     7
 43
1.0
 76
     1
 77
     6
 78
     2
 67
     7
 79
     5
170
     0
171
     0
290
     0
174
     0
 93
        1
 44
-50.0
173
     0
291
     1
 45
0.0
1001
ACAD
1000
AcDbSavedByObjectVersion
1070
     0
  0
VISUALSTYLE
  5
1E6
102
{ACAD_XDICTIONARY
360
559
102
}
102
{ACAD_REACTORS
330
EF
102
}
330
EF
100
AcDbVisualStyle
  2
EdgeColorOff
 70
    22
 71
     2
 72
     2
 73
     0
 90
        0
 40
-0.6
 41
-30.0
 62
     5
 63
     7
421
 16777215
 74
     1
 91
        4
 64
     7
 65
   257
 75
     1
175
     1
 42
1.0
 92
        8
 66
     7
 43
1.0
 76
     1
 77
     6
 78
     2
 67
     7
 79
     5
170
     0
171
     0
290
     0
174
     0
 93
        1
 44
0.0
173
     0
291
     1
 45
0.0
1001
ACAD
1000
AcDbSavedByObjectVersion
1070
     0
  0
VISUALSTYLE
  5
FE
102
{ACAD_XDICTIONARY
360
551
102
}
102
{ACAD_REACTORS
330
EF
102
}
330
EF
100
AcDbVisualStyle
  2
Facepattern
 70
    15
 71
     2
 72
     2
 73
     1
 90
        0
 40
-0.6
 41
-30.0
 62
     5
 63
     7
421
 16777215
 74
     1
 91
        4
 64
     7
 65
   257
 75
     1
175
     1
 42
1.0
 92
        8
 66
     7
 43
1.0
 76
     1
 77
     6
 78
     2
 67
     7
 79
     5
170
     0
171
     0
290
     0
174
     0
 93
        1
 44
0.0
173
     0
291
     1
 45
0.0
1001
ACAD
1000
AcDbSavedByObjectVersion
1070
     0
  0
VISUALSTYLE
  5
F0
102
{ACAD_XDICTIONARY
360
535
102
}
102
{ACAD_REACTORS
330
EF
102
}
330
EF
100
AcDbVisualStyle
  2
Flat
 70
     0
 71
     2
 72
     1
 73
     1
 90
        2
 40
-0.6
 41
30.0
 62
     5
 63
     7
421
 16777215
 74
     0
 91
        0
 64
     7
 65
   257
 75
     1
175
     1
 42
1.0
 92
        8
 66
     7
 43
1.0
 76
     1
 77
     6
 78
     2
 67
     7
 79
     5
170
     0
171
     0
290
     0
174
     0
 93
       13
 44
0.0
173
     0
291
     1
 45
0.0
1001
ACAD
1000
AcDbSavedByObjectVersion
1070
     0
  0
VISUALSTYLE
  5
F1
102
{ACAD_XDICTIONARY
360
537
102
}
102
{ACAD_REACTORS
330
EF
102
}
330
EF
100
AcDbVisualStyle
  2
FlatWithEdges
 70
     1
 71
     2
 72
     1
 73
     1
 90
        2
 40
-0.6
 41
30.0
 62
     5
 63
     7
421
 16777215
 74
     1
 91
        0
 64
     7
 65
   257
 75
     1
175
     1
 42
1.0
 92
        0
 66
   257
 43
1.0
 76
     1
 77
     6
 78
     2
 67
     7
 79
     5
170
     0
171
     0
290
     0
174
     0
 93
       13
 44
0.0
173
     0
291
     1
 45
0.0
1001
ACAD
1000
AcDbSavedByObjectVersion
1070
     0
  0
VISUALSTYLE
  5
F2
102
{ACAD_XDICTIONARY
360
539
102
}
102
{ACAD_REACTORS
330
EF
102
}
330
EF
100
AcDbVisualStyle
  2
Gouraud
 70
     2
 71
     2
 72
     2
 73
     1
 90
        2
 40
-0.6
 41
30.0
 62
     5
 63
     7
421
 16777215
 74
     0
 91
        0
 64
     7
 65
   257
 75
     1
175
     1
 42
1.0
 92
        0
 66
     7
 43
1.0
 76
     1
 77
     6
 78
     2
 67
     7
 79
     5
170
     0
171
     0
290
     0
174
     0
 93
       13
 44
0.0
173
     0
291
     1
 45
0.0
1001
ACAD
1000
AcDbSavedByObjectVersion
1070
     0
  0
VISUALSTYLE
  5
F3
102
{ACAD_XDICTIONARY
360
53B
102
}
102
{ACAD_REACTORS
330
EF
102
}
330
EF
100
AcDbVisualStyle
  2
GouraudWithEdges
 70
     3
 71
     2
 72
     2
 73
     1
 90
        2
 40
-0.6
 41
30.0
 62
     5
 63
     7
421
 16777215
 74
     1
 91
        0
 64
     7
 65
   257
 75
     1
175
     1
 42
1.0
 92
        0
 66
   257
 43
1.0
 76
     1
 77
     6
 78
     2
 67
     7
 79
     5
170
     0
171
     0
290
     0
174
     0
 93
       13
 44
0.0
173
     0
291
     1
 45
0.0
1001
ACAD
1000
AcDbSavedByObjectVersion
1070
     0
  0
VISUALSTYLE
  5
F7
102
{ACAD_XDICTIONARY
360
543
102
}
102
{ACAD_REACTORS
330
EF
102
}
330
EF
100
AcDbVisualStyle
  2
Hidden
 70
     6
 71
     1
 72
     2
 73
     2
 90
        0
 40
-0.6
 41
-30.0
 62
     5
 63
     7
421
 16777215
 74
     2
 91
        2
 64
     7
 65
   257
 75
     2
175
     1
 42
40.0
 92
        0
 66
   257
 43
1.0
 76
     1
 77
     6
 78
     2
 67
     7
 79
     3
170
     0
171
     0
290
     0
174
     0
 93
        1
 44
0.0
173
     0
291
     0
 45
0.0
1001
ACAD
1000
AcDbSavedByObjectVersion
1070
     0
  0
VISUALSTYLE
  5
1E4
102
{ACAD_XDICTIONARY
360
555
102
}
102
{ACAD_REACTORS
330
EF
102
}
330
EF
100
AcDbVisualStyle
  2
JitterOff
 70
    20
 71
     2
 72
     2
 73
     0
 90
        0
 40
-0.6
 41
-30.0
 62
     5
 63
     7
421
 16777215
 74
     1
 91
        4
 64
     7
 65
   257
 75
     1
175
     1
 42
1.0
 92
       10
 66
     7
 43
1.0
 76
     1
 77
     6
 78
     2
 67
     7
 79
     5
170
     0
171
     0
290
     0
174
     0
 93
        1
 44
0.0
173
     0
291
     1
 45
0.0
1001
ACAD
1000
AcDbSavedByObjectVersion
1070
     0
  0
VISUALSTYLE
  5
FD
102
{ACAD_XDICTIONARY
360
54F
102
}
102
{ACAD_REACTORS
330
EF
102
}
330
EF
100
AcDbVisualStyle
  2
Linepattern
 70
    14
 71
     2
 72
     2
 73
     1
 90
        0
 40
-0.6
 41
-30.0
 62
     5
 63
     7
421
 16777215
 74
     1
 91
        4
 64
     7
 65
   257
 75
     7
175
     7
 42
1.0
 92
        8
 66
     7
 43
1.0
 76
     1
 77
     6
 78
     2
 67
     7
 79
     5
170
     0
171
     0
290
     0
174
     0
 93
        1
 44
0.0
173
     0
291
     1
 45
0.0
1001
ACAD
1000
AcDbSavedByObjectVersion
1070
     0
  0
VISUALSTYLE
  5
1E5
102
{ACAD_XDICTIONARY
360
557
102
}
102
{ACAD_REACTORS
330
EF
102
}
330
EF
100
AcDbVisualStyle
  2
OverhangOff
 70
    21
 71
     2
 72
     2
 73
     0
 90
        0
 40
-0.6
 41
-30.0
 62
     5
 63
     7
421
 16777215
 74
     1
 91
        4
 64
     7
 65
   257
 75
     1
175
     1
 42
1.0
 92
        9
 66
     7
 43
1.0
 76
     1
 77
     6
 78
     2
 67
     7
 79
     5
170
     0
171
     0
290
     0
174
     0
 93
        1
 44
0.0
173
     0
291
     1
 45
0.0
1001
ACAD
1000
AcDbSavedByObjectVersion
1070
     0
  0
VISUALSTYLE
  5
F9
102
{ACAD_XDICTIONARY
360
547
102
}
102
{ACAD_REACTORS
330
EF
102
}
330
EF
100
AcDbVisualStyle
  2
Realistic
 70
     8
 71
     2
 72
     3
 73
     0
 90
        2
 40
-0.6
 41
30.0
 62
     5
 63
     7
421
 16777215
 74
     0
 91
        0
 64
     7
 65
   257
 75
     1
175
     1
 42
1.0
 92
        8
 66
   257
 43
1.0
 76
     1
 77
     6
 78
     2
 67
     7
 79
     3
170
     0
171
     0
290
     0
174
     0
 93
       13
 44
0.0
173
     0
291
     0
 45
0.0
1001
ACAD
1000
AcDbSavedByObjectVersion
1070
     0
  0
VISUALSTYLE
  5
1F3
102
{ACAD_XDICTIONARY
360
563
102
}
102
{ACAD_REACTORS
330
EF
102
}
330
EF
100
AcDbVisualStyle
  2
Shaded
 70
    27
 71
     2
 72
     2
 73
     1
 90
        2
 40
-0.6
 41
30.0
 62
     5
 63
     7
421
 16777215
 74
     0
 91
        4
 64
     7
 65
   257
 75
     1
175
     1
 42
1.0
 92
        8
 66
   257
 43
1.0
 76
     1
 77
     6
 78
     2
 67
     8
425
  7895160
 79
     3
170
     0
171
     0
290
     0
174
     0
 93
        5
 44
0.0
173
     0
291
     0
 45
0.0
1001
ACAD
1000
AcDbSavedByObjectVersion
1070
     0
  0
VISUALSTYLE
  5
1F2
102
{ACAD_XDICTIONARY
360
561
102
}
102
{ACAD_REACTORS
330
EF
102
}
330
EF
100
AcDbVisualStyle
  2
Shaded with edges
 70
    26
 71
     2
 72
     2
 73
     1
 90
        2
 40
-0.6
 41
30.0
 62
     5
 63
     7
421
 16777215
 74
     1
 91
        2
 64
     7
 65
   257
 75
     2
175
     1
 42
1.0
 92
        8
 66
   257
 43
1.0
 76
     1
 77
     6
 78
     2
 67
     7
 79
     3
170
     0
171
     0
290
     0
174
     0
 93
        5
 44
0.0
173
     0
291
     0
 45
0.0
1001
ACAD
1000
AcDbSavedByObjectVersion
1070
     0
  0
VISUALSTYLE
  5
1EF
102
{ACAD_XDICTIONARY
360
55B
102
}
102
{ACAD_REACTORS
330
EF
102
}
330
EF
100
AcDbVisualStyle
  2
Shades of Gray
 70
    23
 71
     2
 72
     2
 73
     3
 90
        0
 40
-0.6
 41
-30.0
 62
     5
 63
     7
421
 16777215
 74
     2
 91
        2
 64
     7
 65
     7
 75
     1
175
     1
 42
40.0
 92
        8
 66
     7
 43
1.0
 76
     1
 77
     6
 78
     2
 67
     7
 79
     3
170
     0
171
     0
290
     0
174
     0
 93
        1
 44
0.0
173
     0
291
     0
 45
0.0
1001
ACAD
1000
AcDbSavedByObjectVersion
1070
     0
  0
VISUALSTYLE
  5
1F0
102
{ACAD_XDICTIONARY
360
55D
102
}
102
{ACAD_REACTORS
330
EF
102
}
330
EF
100
AcDbVisualStyle
  2
Sketchy
 70
    24
 71
     1
 72
     2
 73
     2
 90
        0
 40
-0.6
 41
-30.0
 62
     5
 63
     7
421
 16777215
 74
     2
 91
        2
 64
     7
 65
     7
 75
     1
175
     1
 42
40.0
 92
       11
 66
     7
 43
1.0
 76
     1
 77
     6
 78
     2
 67
     7
 79
     6
170
     0
171
     0
290
     0
174
     0
 93
        1
 44
0.0
173
     0
291
     0
 45
0.0
1001
ACAD
1000
AcDbSavedByObjectVersion
1070
     0
  0
VISUALSTYLE
  5
FC
102
{ACAD_XDICTIONARY
360
54D
102
}
102
{ACAD_REACTORS
330
EF
102
}
330
EF
100
AcDbVisualStyle
  2
Thicken
 70
    13
 71
     2
 72
     2
 73
     1
 90
        0
 40
-0.6
 41
-30.0
 62
     5
 63
     7
421
 16777215
 74
     1
 91
        4
 64
     7
 65
   257
 75
     1
175
     1
 42
1.0
 92
       12
 66
     7
 43
1.0
 76
     1
 77
     6
 78
     2
 67
     7
 79
     5
170
     0
171
     0
290
     0
174
     0
 93
        1
 44
0.0
173
     0
291
     1
 45
0.0
1001
ACAD
1000
AcDbSavedByObjectVersion
1070
     0
  0
VISUALSTYLE
  5
F6
102
{ACAD_XDICTIONARY
360
541
102
}
102
{ACAD_REACTORS
330
EF
102
}
330
EF
100
AcDbVisualStyle
  2
Wireframe
 70
     5
 71
     0
 72
     2
 73
     0
 90
        0
 40
-0.6
 41
-30.0
 62
     5
 63
     7
421
 16777215
 74
     1
 91
        4
 64
     7
 65
   257
 75
     1
175
     1
 42
1.0
 92
        0
 66
   257
 43
1.0
 76
     1
 77
     6
 78
     2
 67
     7
 79
     3
170
     0
171
     0
290
     0
174
     0
 93
        1
 44
0.0
173
     0
291
     0
 45
0.0
1001
ACAD
1000
AcDbSavedByObjectVersion
1070
     0
  0
VISUALSTYLE
  5
1F1
102
{ACAD_XDICTIONARY
360
55F
102
}
102
{ACAD_REACTORS
330
EF
102
}
330
EF
100
AcDbVisualStyle
  2
X-Ray
 70
    25
 71
     2
 72
     2
 73
     1
 90
        1
 40
0.5
 41
-30.0
 62
     5
 63
     7
421
 16777215
 74
     1
 91
        0
 64
     7
 65
   257
 75
     1
175
     1
 42
1.0
 92
        8
 66
     7
 43
1.0
 76
     1
 77
     6
 78
     2
 67
     7
 79
     3
170
     0
171
     0
290
     0
174
     0
 93
       13
 44
0.0
173
     0
291
     0
 45
0.0
1001
ACAD
1000
AcDbSavedByObjectVersion
1070
     0
  0
DICTIONARYVAR
  5
146
102
{ACAD_REACTORS
330
5E
102
}
330
5E
100
DictionaryVariables
280
     0
  1
1:1
  0
DICTIONARYVAR
  5
259
102
{ACAD_REACTORS
330
5E
102
}
330
5E
100
DictionaryVariables
280
     0
  1
3.500000
  0
DICTIONARYVAR
  5
25A
102
{ACAD_REACTORS
330
5E
102
}
330
5E
100
DictionaryVariables
280
     0
  1
acadiso.lin
  0
DICTIONARYVAR
  5
145
102
{ACAD_REACTORS
330
5E
102
}
330
5E
100
DictionaryVariables
280
     0
  1
STANDARD
  0
DICTIONARYVAR
  5
84
102
{ACAD_REACTORS
330
5E
102
}
330
5E
100
DictionaryVariables
280
     0
  1
STANDARD
  0
DICTIONARYVAR
  5
227
102
{ACAD_REACTORS
330
5E
102
}
330
5E
100
DictionaryVariables
280
     0
  1
Metric50
  0
DICTIONARYVAR
  5
228
102
{ACAD_REACTORS
330
5E
102
}
330
5E
100
DictionaryVariables
280
     0
  1
Metric50
  0
DICTIONARYVAR
  5
5F
102
{ACAD_REACTORS
330
5E
102
}
330
5E
100
DictionaryVariables
280
     0
  1
2
  0
DICTIONARYVAR
  5
63
102
{ACAD_REACTORS
330
5E
102
}
330
5E
100
DictionaryVariables
280
     0
  1
1
  0
DICTIONARYVAR
  5
1AE
102
{ACAD_REACTORS
330
5E
102
}
330
5E
100
DictionaryVariables
280
     0
  1
0
  0
DICTIONARYVAR
  5
1AF
102
{ACAD_REACTORS
330
5E
102
}
330
5E
100
DictionaryVariables
280
     0
  1
0
  0
DICTIONARYVAR
  5
523
102
{ACAD_REACTORS
330
5E
102
}
330
5E
100
DictionaryVariables
280
     0
  1
2
  0
DICTIONARYVAR
  5
522
102
{ACAD_REACTORS
330
5E
102
}
330
5E
100
DictionaryVariables
280
     0
  1
1
  0
DICTIONARYVAR
  5
525
102
{ACAD_REACTORS
330
5E
102
}
330
5E
100
DictionaryVariables
280
     0
  1
80.000000
  0
DICTIONARYVAR
  5
524
102
{ACAD_REACTORS
330
5E
102
}
330
5E
100
DictionaryVariables
280
     0
  1
5.000000
  0
DICTIONARYVAR
  5
526
102
{ACAD_REACTORS
330
5E
102
}
330
5E
100
DictionaryVariables
280
     0
  1
2
  0
DICTIONARY
  5
530
102
{ACAD_REACTORS
330
52E
102
}
330
52E
100
AcDbDictionary
281
     1
  0
DICTIONARY
  5
52F
102
{ACAD_REACTORS
330
52E
102
}
330
52E
100
AcDbDictionary
281
     1
  3
1416163966480
350
529
  3
1416163966496
350
52A
  3
1416163966512
350
52B
  3
1416163966528
350
52C
  3
1416163966544
350
52D
  0
ACDBASSOCNETWORK
  5
2D8
102
{ACAD_REACTORS
330
2D7
102
}
330
2D7
100
AcDbAssocAction
 90
        1
 90
        0
330
2DA
360
0
 90
        1
 90
        0
 90
        0
100
AcDbAssocNetwork
 90
        0
 90
       47
 90
       44
360
2DB
360
336
360
337
360
338
360
355
360
35B
360
360
360
365
360
36A
360
36F
360
374
360
379
360
37E
360
383
360
388
360
39B
360
3A0
360
3A7
360
3AC
360
3B7
360
3C8
360
3CD
360
3E5
360
3F0
360
40D
360
412
360
417
360
41C
360
421
360
42B
360
430
360
435
360
43A
360
43F
360
449
360
44E
360
454
360
459
360
45E
360
463
360
468
360
46D
360
472
360
477
 90
        0
  0
DICTIONARY
  5
567
330
21C
100
AcDbDictionary
280
     1
281
     1
  3
ACAD_XREC_ROUNDTRIP
360
568
  0
DICTIONARY
  5
205
330
22
100
AcDbDictionary
280
     1
281
     1
  0
DICTIONARY
  5
1F9
330
ED
100
AcDbDictionary
280
     1
281
     1
  3
ACAD_XREC_ROUNDTRIP
360
533
  3
FBXASSET
360
1FA
  0
DICTIONARY
  5
1F7
330
EC
100
AcDbDictionary
280
     1
281
     1
  3
ACAD_XREC_ROUNDTRIP
360
532
  3
FBXASSET
360
1F8
  0
DICTIONARY
  5
173
330
EE
100
AcDbDictionary
280
     1
281
     1
  3
ACAD_XREC_ROUNDTRIP
360
534
  3
BUMPTILE
360
175
  3
DIFFUSETILE
360
174
  3
FBXASSET
360
1FB
  3
OPACITYTILE
360
176
  3
REFLECTIONTILE
360
177
  0
DICTIONARY
  5
565
330
21A
100
AcDbDictionary
280
     1
281
     1
  3
ACAD_XREC_ROUNDTRIP
360
566
  0
DICTIONARY
  5
162
330
7F
100
AcDbDictionary
280
     1
281
     1
  3
ACAD_ROUNDTRIP_2008_TABLESTYLE_CELLSTYLEMAP
360
527
  3
ACAD_XREC_ROUNDTRIP
360
531
  0
DICTIONARY
  5
53F
330
F5
100
AcDbDictionary
280
     1
281
     1
  3
ACAD_XREC_ROUNDTRIP
360
540
  0
DICTIONARY
  5
53D
330
F4
100
AcDbDictionary
280
     1
281
     1
  3
ACAD_XREC_ROUNDTRIP
360
53E
  0
DICTIONARY
  5
54B
330
FB
100
AcDbDictionary
280
     1
281
     1
  3
ACAD_XREC_ROUNDTRIP
360
54C
  0
DICTIONARY
  5
553
330
FF
100
AcDbDictionary
280
     1
281
     1
  3
ACAD_XREC_ROUNDTRIP
360
554
  0
DICTIONARY
  5
545
330
F8
100
AcDbDictionary
280
     1
281
     1
  3
ACAD_XREC_ROUNDTRIP
360
546
  0
DICTIONARY
  5
549
330
FA
100
AcDbDictionary
280
     1
281
     1
  3
ACAD_XREC_ROUNDTRIP
360
54A
  0
DICTIONARY
  5
559
330
1E6
100
AcDbDictionary
280
     1
281
     1
  3
ACAD_XREC_ROUNDTRIP
360
55A
  0
DICTIONARY
  5
551
330
FE
100
AcDbDictionary
280
     1
281
     1
  3
ACAD_XREC_ROUNDTRIP
360
552
  0
DICTIONARY
  5
535
330
F0
100
AcDbDictionary
280
     1
281
     1
  3
ACAD_XREC_ROUNDTRIP
360
536
  0
DICTIONARY
  5
537
330
F1
100
AcDbDictionary
280
     1
281
     1
  3
ACAD_XREC_ROUNDTRIP
360
538
  0
DICTIONARY
  5
539
330
F2
100
AcDbDictionary
280
     1
281
     1
  3
ACAD_XREC_ROUNDTRIP
360
53A
  0
DICTIONARY
  5
53B
330
F3
100
AcDbDictionary
280
     1
281
     1
  3
ACAD_XREC_ROUNDTRIP
360
53C
  0
DICTIONARY
  5
543
330
F7
100
AcDbDictionary
280
     1
281
     1
  3
ACAD_XREC_ROUNDTRIP
360
544
  0
DICTIONARY
  5
555
330
1E4
100
AcDbDictionary
280
     1
281
     1
  3
ACAD_XREC_ROUNDTRIP
360
556
  0
DICTIONARY
  5
54F
330
FD
100
AcDbDictionary
280
     1
281
     1
  3
ACAD_XREC_ROUNDTRIP
360
550
  0
DICTIONARY
  5
557
330
1E5
100
AcDbDictionary
280
     1
281
     1
  3
ACAD_XREC_ROUNDTRIP
360
558
  0
DICTIONARY
  5
547
330
F9
100
AcDbDictionary
280
     1
281
     1
  3
ACAD_XREC_ROUNDTRIP
360
548
  0
DICTIONARY
  5
563
330
1F3
100
AcDbDictionary
280
     1
281
     1
  3
ACAD_XREC_ROUNDTRIP
360
564
  0
DICTIONARY
  5
561
330
1F2
100
AcDbDictionary
280
     1
281
     1
  3
ACAD_XREC_ROUNDTRIP
360
562
  0
DICTIONARY
  5
55B
330
1EF
100
AcDbDictionary
280
     1
281
     1
  3
ACAD_XREC_ROUNDTRIP
360
55C
  0
DICTIONARY
  5
55D
330
1F0
100
AcDbDictionary
280
     1
281
     1
  3
ACAD_XREC_ROUNDTRIP
360
55E
  0
DICTIONARY
  5
54D
330
FC
100
AcDbDictionary
280
     1
281
     1
  3
ACAD_XREC_ROUNDTRIP
360
54E
  0
DICTIONARY
  5
541
330
F6
100
AcDbDictionary
280
     1
281
     1
  3
ACAD_XREC_ROUNDTRIP
360
542
  0
DICTIONARY
  5
55F
330
1F1
100
AcDbDictionary
280
     1
281
     1
  3
ACAD_XREC_ROUNDTRIP
360
560
  0
XRECORD
  5
529
102
{ACAD_REACTORS
330
52F
102
}
330
52F
100
AcDbXrecord
280
     1
  1
AcDb_Thumbnail_Schema
102
{ATTRRECORD
341
52A
  2
AcDbDs::TreatedAsObjectData
280
     1
291
     1
102
ATTRRECORD}
102
{ATTRRECORD
341
52B
  2
AcDbDs::Legacy
280
     1
291
     1
102
ATTRRECORD}
  2
AcDbDs::ID
280
    10
 91
        8
102
{ATTRRECORD
341
52C
  2
AcDs:Indexable
280
     1
291
     1
102
ATTRRECORD}
102
{ATTRRECORD
341
52D
  2
AcDbDs::HandleAttribute
280
     7
282
     1
102
ATTRRECORD}
  2
Thumbnail_Data
280
    15
 91
        0
  0
XRECORD
  5
52A
102
{ACAD_REACTORS
330
52F
102
}
330
52F
100
AcDbXrecord
280
     1
  1
AcDbDs::TreatedAsObjectDataSchema
  2
AcDbDs::TreatedAsObjectData
280
     1
 91
        0
  0
XRECORD
  5
52B
102
{ACAD_REACTORS
330
52F
102
}
330
52F
100
AcDbXrecord
280
     1
  1
AcDbDs::LegacySchema
  2
AcDbDs::Legacy
280
     1
 91
        0
  0
XRECORD
  5
52C
102
{ACAD_REACTORS
330
52F
102
}
330
52F
100
AcDbXrecord
280
     1
  1
AcDbDs::IndexedPropertySchema
  2
AcDs:Indexable
280
     1
 91
        0
  0
XRECORD
  5
52D
102
{ACAD_REACTORS
330
52F
102
}
330
52F
100
AcDbXrecord
280
     1
  1
AcDbDs::HandleAttributeSchema
  2
AcDbDs::HandleAttribute
280
     7
 91
        1
284
     1
  0
ACDBASSOC2DCONSTRAINTGROUP
  5
2DB
330
2D8
100
AcDbAssocAction
 90
        1
 90
        0
330
2D8
360
0
 90
        1
 90
      139
 90
        0
 90
        2
 70
     0
 10
0.0
 20
0.0
 30
0.0
 10
1.0
 20
0.0
 30
0.0
 10
0.0
 20
1.0
 30
0.0
360
0
 90
      121
360
2DC
360
367
360
2E8
360
36B
360
2EC
360
361
360
2DE
360
2EA
360
2EE
360
2EB
360
36C
360
2EF
360
2DF
360
2E9
360
362
360
2ED
360
2DD
360
366
360
329
360
45A
360
460
360
464
360
3E7
360
3E6
360
2F8
360
40F
360
413
360
37B
360
37F
360
2FC
360
300
360
2FE
360
2FA
360
371
360
375
360
376
360
414
360
37A
360
2F9
360
2FD
360
2FB
360
2FF
360
370
360
38A
360
479
360
30D
360
30F
360
317
360
380
360
384
360
478
360
389
360
30E
360
316
360
474
360
318
360
39D
360
391
360
3CF
360
3A8
360
3B8
360
39C
360
323
360
392
360
3A5
360
3CE
360
35C
360
35D
360
42D
360
356
360
42C
360
357
360
385
360
390
360
40E
360
393
360
3CA
360
3A9
360
3AD
360
455
360
3A1
360
3AE
360
3A2
360
431
360
44B
360
3B3
360
3B4
360
3B5
360
3B9
360
3C4
360
3C5
360
3C6
360
3C9
360
3F1
360
3F2
360
418
360
419
360
41D
360
41E
360
422
360
423
360
432
360
436
360
437
360
43B
360
43C
360
440
360
441
360
44A
360
44F
360
450
360
456
360
45B
360
45F
360
465
360
469
360
46A
360
46E
360
46F
360
473
360
47E
 90
      388
 90
      308
  1
AcConstrainedBoundedLine
330
2DB
 90
        1
 70
     1
 90
        2
 90
        3
 90
        5
330
2DC
 90
        0
 10
3599.432330845572
 20
1589.921229272199
 30
0.0
 10
1.0
 20
0.0
 30
0.0
290
     0
 10
3599.432330845572
 20
1589.921229272199
 30
0.0
 11
3601.432330845571
 21
1589.921229272199
 31
0.0
  1
AcConstrainedImplicitPoint
330
2DB
 90
        2
 70
     1
 90
        2
 90
        3
 90
       11
330
0
 90
        0
280
     0
 90
       -1
 90
        1
  1
AcPointCurveConstraint
330
2DB
 90
        3
 70
     0
 90
        2
 90
        2
 90
        1
 90
        0
290
     1
290
     1
  1
AcConstrainedImplicitPoint
330
2DB
 90
        4
 70
     1
 90
        2
 90
        5
 90
       17
330
0
 90
        0
280
     1
 90
       -1
 90
        1
  1
AcPointCurveConstraint
330
2DB
 90
        5
 70
     0
 90
        2
 90
        4
 90
        1
 90
        0
290
     1
290
     1
  1
AcConstrainedBoundedLine
330
2DB
 90
        6
 70
     1
 90
        2
 90
        8
 90
       10
330
2DD
 90
        0
 10
3599.432583740857
 20
1590.221232825224
 30
0.0
 10
0.0008429740037172
 20
0.9999996446974819
 30
0.0
290
     0
 10
3599.432330845572
 20
1589.921229272199
 30
0.0
 11
3599.441013480893
 21
1600.221229272199
 31
0.0
  1
AcConstrainedImplicitPoint
330
2DB
 90
        7
 70
     1
 90
        4
 90
        8
 90
       11
 90
      243
 90
      336
330
0
 90
        0
280
     0
 90
       -1
 90
        6
  1
AcPointCurveConstraint
330
2DB
 90
        8
 70
     0
 90
        2
 90
        7
 90
        6
 90
        0
290
     1
290
     1
  1
AcConstrainedImplicitPoint
330
2DB
 90
        9
 70
     1
 90
        3
 90
       10
 90
       23
 90
      336
330
0
 90
        0
280
     1
 90
       -1
 90
        6
  1
AcPointCurveConstraint
330
2DB
 90
       10
 70
     0
 90
        2
 90
        9
 90
        6
 90
        0
290
     1
290
     1
  1
AcPointCoincidenceConstraint
330
2DB
 90
       11
 70
     0
 90
        2
 90
        2
 90
        7
 90
        0
290
     0
290
     1
  1
AcConstrainedBoundedLine
330
2DB
 90
       12
 70
     1
 90
        2
 90
       14
 90
       16
330
2DE
 90
        0
 10
3601.432330845567
 20
1589.921229232945
 30
0.0
 10
-0.0000886280240593
 20
-0.9999999960725745
 30
0.0
290
     0
 10
3601.432330845571
 20
1589.921229272199
 30
0.0
 11
3601.431444565327
 21
1579.921229272199
 31
0.0
  1
AcConstrainedImplicitPoint
330
2DB
 90
       13
 70
     1
 90
        4
 90
       14
 90
       17
 90
      243
 90
      346
330
0
 90
        0
280
     0
 90
       -1
 90
       12
  1
AcPointCurveConstraint
330
2DB
 90
       14
 70
     0
 90
        2
 90
       13
 90
       12
 90
        0
290
     1
290
     1
  1
AcConstrainedImplicitPoint
330
2DB
 90
       15
 70
     1
 90
        3
 90
       16
 90
       29
 90
      346
330
0
 90
        0
280
     1
 90
       -1
 90
       12
  1
AcPointCurveConstraint
330
2DB
 90
       16
 70
     0
 90
        2
 90
       15
 90
       12
 90
        0
290
     1
290
     1
  1
AcPointCoincidenceConstraint
330
2DB
 90
       17
 70
     0
 90
        2
 90
        4
 90
       13
 90
        0
290
     0
290
     1
  1
AcConstrainedBoundedLine
330
2DB
 90
       18
 70
     1
 90
        3
 90
       20
 90
       22
 90
      368
330
2DF
 90
        0
 10
3599.441013480893
 20
1600.221229272199
 30
0.0
 10
1.0
 20
0.0
 30
0.0
290
     0
 10
3599.441013480893
 20
1600.221229272199
 30
0.0
 11
3696.441013480893
 21
1600.221229272199
 31
0.0
  1
AcConstrainedImplicitPoint
330
2DB
 90
       19
 70
     1
 90
        3
 90
       20
 90
       23
 90
      331
330
0
 90
        0
280
     0
 90
       -1
 90
       18
  1
AcPointCurveConstraint
330
2DB
 90
       20
 70
     0
 90
        2
 90
       19
 90
       18
 90
        0
290
     1
290
     1
  1
AcConstrainedImplicitPoint
330
2DB
 90
       21
 70
     1
 90
        2
 90
       22
 90
      328
330
0
 90
        0
280
     1
 90
       -1
 90
       18
  1
AcPointCurveConstraint
330
2DB
 90
       22
 70
     0
 90
        2
 90
       21
 90
       18
 90
        0
290
     1
290
     1
  1
AcPointCoincidenceConstraint
330
2DB
 90
       23
 70
     0
 90
        2
 90
       19
 90
        9
 90
        0
290
     0
290
     1
  1
AcConstrainedBoundedLine
330
2DB
 90
       24
 70
     1
 90
        3
 90
       26
 90
       28
 90
      357
330
2E8
 90
        0
 10
3601.334858905496
 20
1579.921229272199
 30
0.0
 10
-1.0
 20
0.0
 30
0.0
290
     0
 10
3601.431444565327
 20
1579.921229272199
 30
0.0
 11
3599.431444565327
 21
1579.921229272199
 31
0.0
  1
AcConstrainedImplicitPoint
330
2DB
 90
       25
 70
     1
 90
        3
 90
       26
 90
       29
 90
      244
330
0
 90
        0
280
     0
 90
       -1
 90
       24
  1
AcPointCurveConstraint
330
2DB
 90
       26
 70
     0
 90
        2
 90
       25
 90
       24
 90
        0
290
     1
290
     1
  1
AcConstrainedImplicitPoint
330
2DB
 90
       27
 70
     1
 90
        2
 90
       28
 90
       35
330
0
 90
        0
280
     1
 90
       -1
 90
       24
  1
AcPointCurveConstraint
330
2DB
 90
       28
 70
     0
 90
        2
 90
       27
 90
       24
 90
        0
290
     1
290
     1
  1
AcPointCoincidenceConstraint
330
2DB
 90
       29
 70
     0
 90
        2
 90
       15
 90
       25
 90
        0
290
     0
290
     1
  1
AcConstrainedBoundedLine
330
2DB
 90
       30
 70
     1
 90
        3
 90
       32
 90
       34
 90
      358
330
2E9
 90
        0
 10
3599.431444565327
 20
1579.621229272171
 30
0.0
 10
0.0
 20
-1.0
 30
0.0
290
     0
 10
3599.431444565327
 20
1579.921229272199
 30
0.0
 11
3599.431444565327
 21
1569.6212292722
 31
0.0
  1
AcConstrainedImplicitPoint
330
2DB
 90
       31
 70
     1
 90
        4
 90
       32
 90
       35
 90
      244
 90
      337
330
0
 90
        0
280
     0
 90
       -1
 90
       30
  1
AcPointCurveConstraint
330
2DB
 90
       32
 70
     0
 90
        2
 90
       31
 90
       30
 90
        0
290
     1
290
     1
  1
AcConstrainedImplicitPoint
330
2DB
 90
       33
 70
     1
 90
        3
 90
       34
 90
       41
 90
      337
330
0
 90
        0
280
     1
 90
       -1
 90
       30
  1
AcPointCurveConstraint
330
2DB
 90
       34
 70
     0
 90
        2
 90
       33
 90
       30
 90
        0
290
     1
290
     1
  1
AcPointCoincidenceConstraint
330
2DB
 90
       35
 70
     0
 90
        2
 90
       27
 90
       31
 90
        0
290
     0
290
     1
  1
AcConstrainedBoundedLine
330
2DB
 90
       36
 70
     1
 90
        2
 90
       38
 90
       40
330
2EA
 90
        0
 10
3599.431444565327
 20
1569.6212292722
 30
0.0
 10
1.0
 20
0.0
 30
0.0
290
     0
 10
3599.431444565327
 20
1569.6212292722
 30
0.0
 11
3601.431444565327
 21
1569.6212292722
 31
0.0
  1
AcConstrainedImplicitPoint
330
2DB
 90
       37
 70
     1
 90
        3
 90
       38
 90
       41
 90
      245
330
0
 90
        0
280
     0
 90
       -1
 90
       36
  1
AcPointCurveConstraint
330
2DB
 90
       38
 70
     0
 90
        2
 90
       37
 90
       36
 90
        0
290
     1
290
     1
  1
AcConstrainedImplicitPoint
330
2DB
 90
       39
 70
     1
 90
        2
 90
       40
 90
       47
330
0
 90
        0
280
     1
 90
       -1
 90
       36
  1
AcPointCurveConstraint
330
2DB
 90
       40
 70
     0
 90
        2
 90
       39
 90
       36
 90
        0
290
     1
290
     1
  1
AcPointCoincidenceConstraint
330
2DB
 90
       41
 70
     0
 90
        2
 90
       33
 90
       37
 90
        0
290
     0
290
     1
  1
AcConstrainedBoundedLine
330
2DB
 90
       42
 70
     1
 90
        2
 90
       44
 90
       46
330
2EB
 90
        0
 10
3601.431444565327
 20
1569.110257565631
 30
0.0
 10
0.0
 20
-1.0
 30
0.0
290
     0
 10
3601.431444565327
 20
1569.6212292722
 30
0.0
 11
3601.431444565328
 21
1559.621229272199
 31
0.0
  1
AcConstrainedImplicitPoint
330
2DB
 90
       43
 70
     1
 90
        4
 90
       44
 90
       47
 90
      245
 90
      347
330
0
 90
        0
280
     0
 90
       -1
 90
       42
  1
AcPointCurveConstraint
330
2DB
 90
       44
 70
     0
 90
        2
 90
       43
 90
       42
 90
        0
290
     1
290
     1
  1
AcConstrainedImplicitPoint
330
2DB
 90
       45
 70
     1
 90
        3
 90
       46
 90
       53
 90
      347
330
0
 90
        0
280
     1
 90
       -1
 90
       42
  1
AcPointCurveConstraint
330
2DB
 90
       46
 70
     0
 90
        2
 90
       45
 90
       42
 90
        0
290
     1
290
     1
  1
AcPointCoincidenceConstraint
330
2DB
 90
       47
 70
     0
 90
        2
 90
       39
 90
       43
 90
        0
290
     0
290
     1
  1
AcConstrainedBoundedLine
330
2DB
 90
       48
 70
     1
 90
        3
 90
       50
 90
       52
 90
      359
330
2EC
 90
        0
 10
3601.431444565328
 20
1559.621229272199
 30
0.0
 10
-1.0
 20
0.0
 30
0.0
290
     0
 10
3601.431444565328
 20
1559.621229272199
 30
0.0
 11
3599.431444565328
 21
1559.621229272199
 31
0.0
  1
AcConstrainedImplicitPoint
330
2DB
 90
       49
 70
     1
 90
        3
 90
       50
 90
       53
 90
      246
330
0
 90
        0
280
     0
 90
       -1
 90
       48
  1
AcPointCurveConstraint
330
2DB
 90
       50
 70
     0
 90
        2
 90
       49
 90
       48
 90
        0
290
     1
290
     1
  1
AcConstrainedImplicitPoint
330
2DB
 90
       51
 70
     1
 90
        3
 90
       52
 90
       59
 90
      246
330
0
 90
        0
280
     1
 90
       -1
 90
       48
  1
AcPointCurveConstraint
330
2DB
 90
       52
 70
     0
 90
        2
 90
       51
 90
       48
 90
        0
290
     1
290
     1
  1
AcPointCoincidenceConstraint
330
2DB
 90
       53
 70
     0
 90
        2
 90
       45
 90
       49
 90
        0
290
     0
290
     1
  1
AcConstrainedBoundedLine
330
2DB
 90
       54
 70
     1
 90
        2
 90
       56
 90
       58
330
2ED
 90
        0
 10
3599.431444565328
 20
1559.321229272171
 30
0.0
 10
0.0
 20
-1.0
 30
0.0
290
     0
 10
3599.431444565328
 20
1559.621229272199
 30
0.0
 11
3599.431444565328
 21
1549.321229272199
 31
0.0
  1
AcConstrainedImplicitPoint
330
2DB
 90
       55
 70
     1
 90
        3
 90
       56
 90
       59
 90
      338
330
0
 90
        0
280
     0
 90
       -1
 90
       54
  1
AcPointCurveConstraint
330
2DB
 90
       56
 70
     0
 90
        2
 90
       55
 90
       54
 90
        0
290
     1
290
     1
  1
AcConstrainedImplicitPoint
330
2DB
 90
       57
 70
     1
 90
        3
 90
       58
 90
       65
 90
      338
330
0
 90
        0
280
     1
 90
       -1
 90
       54
  1
AcPointCurveConstraint
330
2DB
 90
       58
 70
     0
 90
        2
 90
       57
 90
       54
 90
        0
290
     1
290
     1
  1
AcPointCoincidenceConstraint
330
2DB
 90
       59
 70
     0
 90
        2
 90
       51
 90
       55
 90
        0
290
     0
290
     1
  1
AcConstrainedBoundedLine
330
2DB
 90
       60
 70
     1
 90
        2
 90
       62
 90
       64
330
2EE
 90
        0
 10
3599.431444565328
 20
1549.321229272199
 30
0.0
 10
1.0
 20
0.0
 30
0.0
290
     0
 10
3599.431444565328
 20
1549.321229272199
 30
0.0
 11
3601.431444565328
 21
1549.321229272199
 31
0.0
  1
AcConstrainedImplicitPoint
330
2DB
 90
       61
 70
     1
 90
        3
 90
       62
 90
       65
 90
      247
330
0
 90
        0
280
     0
 90
       -1
 90
       60
  1
AcPointCurveConstraint
330
2DB
 90
       62
 70
     0
 90
        2
 90
       61
 90
       60
 90
        0
290
     1
290
     1
  1
AcConstrainedImplicitPoint
330
2DB
 90
       63
 70
     1
 90
        2
 90
       64
 90
       71
330
0
 90
        0
280
     1
 90
       -1
 90
       60
  1
AcPointCurveConstraint
330
2DB
 90
       64
 70
     0
 90
        2
 90
       63
 90
       60
 90
        0
290
     1
290
     1
  1
AcPointCoincidenceConstraint
330
2DB
 90
       65
 70
     0
 90
        2
 90
       57
 90
       61
 90
        0
290
     0
290
     1
  1
AcConstrainedBoundedLine
330
2DB
 90
       66
 70
     1
 90
        2
 90
       68
 90
       70
330
2EF
 90
        0
 10
3601.431409960945
 20
1549.319413634387
 30
0.0
 10
-0.0190556177676626
 20
-0.9998184252310693
 30
0.0
290
     0
 10
3601.431444565328
 20
1549.321229272199
 30
0.0
 11
3601.240853781174
 21
1539.321229272199
 31
0.0
  1
AcConstrainedImplicitPoint
330
2DB
 90
       67
 70
     1
 90
        4
 90
       68
 90
       71
 90
      247
 90
      348
330
0
 90
        0
280
     0
 90
       -1
 90
       66
  1
AcPointCurveConstraint
330
2DB
 90
       68
 70
     0
 90
        2
 90
       67
 90
       66
 90
        0
290
     1
290
     1
  1
AcConstrainedImplicitPoint
330
2DB
 90
       69
 70
     1
 90
        2
 90
       70
 90
       77
330
0
 90
        0
280
     1
 90
       -1
 90
       66
  1
AcPointCurveConstraint
330
2DB
 90
       70
 70
     0
 90
        2
 90
       69
 90
       66
 90
        0
290
     1
290
     1
  1
AcPointCoincidenceConstraint
330
2DB
 90
       71
 70
     0
 90
        2
 90
       67
 90
       63
 90
        0
290
     0
290
     1
  1
AcConstrainedBoundedLine
330
2DB
 90
       72
 70
     1
 90
        3
 90
       74
 90
       76
 90
      360
330
2F8
 90
        0
 10
3601.43292726787
 20
1539.321229272199
 30
0.0
 10
-1.0
 20
0.0
 30
0.0
290
     0
 10
3601.240853781174
 20
1539.321229272199
 30
0.0
 11
3599.240853781174
 21
1539.321229272199
 31
0.0
  1
AcConstrainedImplicitPoint
330
2DB
 90
       73
 70
     1
 90
        4
 90
       74
 90
       77
 90
      248
 90
      348
330
0
 90
        0
280
     0
 90
       -1
 90
       72
  1
AcPointCurveConstraint
330
2DB
 90
       74
 70
     0
 90
        2
 90
       73
 90
       72
 90
        0
290
     1
290
     1
  1
AcConstrainedImplicitPoint
330
2DB
 90
       75
 70
     1
 90
        3
 90
       76
 90
       83
 90
      248
330
0
 90
        0
280
     1
 90
       -1
 90
       72
  1
AcPointCurveConstraint
330
2DB
 90
       76
 70
     0
 90
        2
 90
       75
 90
       72
 90
        0
290
     1
290
     1
  1
AcPointCoincidenceConstraint
330
2DB
 90
       77
 70
     0
 90
        2
 90
       69
 90
       73
 90
        0
290
     0
290
     1
  1
AcConstrainedBoundedLine
330
2DB
 90
       78
 70
     1
 90
        3
 90
       80
 90
       82
 90
      362
330
2F9
 90
        0
 10
3599.240853781174
 20
1539.327440076304
 30
0.0
 10
0.0
 20
-1.0
 30
0.0
290
     0
 10
3599.240853781174
 20
1539.321229272199
 30
0.0
 11
3599.240853781174
 21
1529.021229272199
 31
0.0
  1
AcConstrainedImplicitPoint
330
2DB
 90
       79
 70
     1
 90
        3
 90
       80
 90
       83
 90
      339
330
0
 90
        0
280
     0
 90
       -1
 90
       78
  1
AcPointCurveConstraint
330
2DB
 90
       80
 70
     0
 90
        2
 90
       79
 90
       78
 90
        0
290
     1
290
     1
  1
AcConstrainedImplicitPoint
330
2DB
 90
       81
 70
     1
 90
        3
 90
       82
 90
       89
 90
      339
330
0
 90
        0
280
     1
 90
       -1
 90
       78
  1
AcPointCurveConstraint
330
2DB
 90
       82
 70
     0
 90
        2
 90
       81
 90
       78
 90
        0
290
     1
290
     1
  1
AcPointCoincidenceConstraint
330
2DB
 90
       83
 70
     0
 90
        2
 90
       75
 90
       79
 90
        0
290
     0
290
     1
  1
AcConstrainedBoundedLine
330
2DB
 90
       84
 70
     1
 90
        2
 90
       86
 90
       88
330
2FA
 90
        0
 10
3599.240853781174
 20
1529.021229272199
 30
0.0
 10
1.0
 20
0.0
 30
0.0
290
     0
 10
3599.240853781174
 20
1529.021229272199
 30
0.0
 11
3601.240853781174
 21
1529.021229272199
 31
0.0
  1
AcConstrainedImplicitPoint
330
2DB
 90
       85
 70
     1
 90
        3
 90
       86
 90
       89
 90
      249
330
0
 90
        0
280
     0
 90
       -1
 90
       84
  1
AcPointCurveConstraint
330
2DB
 90
       86
 70
     0
 90
        2
 90
       85
 90
       84
 90
        0
290
     1
290
     1
  1
AcConstrainedImplicitPoint
330
2DB
 90
       87
 70
     1
 90
        2
 90
       88
 90
       95
330
0
 90
        0
280
     1
 90
       -1
 90
       84
  1
AcPointCurveConstraint
330
2DB
 90
       88
 70
     0
 90
        2
 90
       87
 90
       84
 90
        0
290
     1
290
     1
  1
AcPointCoincidenceConstraint
330
2DB
 90
       89
 70
     0
 90
        2
 90
       81
 90
       85
 90
        0
290
     0
290
     1
  1
AcConstrainedBoundedLine
330
2DB
 90
       90
 70
     1
 90
        3
 90
       92
 90
       94
 90
      361
330
2FB
 90
        0
 10
3601.240853781174
 20
1529.025643833206
 30
0.0
 10
0.0
 20
-1.0
 30
0.0
290
     0
 10
3601.240853781174
 20
1529.021229272199
 30
0.0
 11
3601.240853781174
 21
1519.0212292722
 31
0.0
  1
AcConstrainedImplicitPoint
330
2DB
 90
       91
 70
     1
 90
        4
 90
       92
 90
       95
 90
      249
 90
      349
330
0
 90
        0
280
     0
 90
       -1
 90
       90
  1
AcPointCurveConstraint
330
2DB
 90
       92
 70
     0
 90
        2
 90
       91
 90
       90
 90
        0
290
     1
290
     1
  1
AcConstrainedImplicitPoint
330
2DB
 90
       93
 70
     1
 90
        2
 90
       94
 90
      101
330
0
 90
        0
280
     1
 90
       -1
 90
       90
  1
AcPointCurveConstraint
330
2DB
 90
       94
 70
     0
 90
        2
 90
       93
 90
       90
 90
        0
290
     1
290
     1
  1
AcPointCoincidenceConstraint
330
2DB
 90
       95
 70
     0
 90
        2
 90
       87
 90
       91
 90
        0
290
     0
290
     1
  1
AcConstrainedBoundedLine
330
2DB
 90
       96
 70
     1
 90
        3
 90
       98
 90
      100
 90
      363
330
2FC
 90
        0
 10
3601.676807715409
 20
1519.0212292722
 30
0.0
 10
-1.0
 20
0.0
 30
0.0
290
     0
 10
3601.240853781174
 20
1519.0212292722
 30
0.0
 11
3599.240853781174
 21
1519.0212292722
 31
0.0
  1
AcConstrainedImplicitPoint
330
2DB
 90
       97
 70
     1
 90
        4
 90
       98
 90
      101
 90
      250
 90
      349
330
0
 90
        0
280
     0
 90
       -1
 90
       96
  1
AcPointCurveConstraint
330
2DB
 90
       98
 70
     0
 90
        2
 90
       97
 90
       96
 90
        0
290
     1
290
     1
  1
AcConstrainedImplicitPoint
330
2DB
 90
       99
 70
     1
 90
        3
 90
      100
 90
      107
 90
      250
330
0
 90
        0
280
     1
 90
       -1
 90
       96
  1
AcPointCurveConstraint
330
2DB
 90
      100
 70
     0
 90
        2
 90
       99
 90
       96
 90
        0
290
     1
290
     1
  1
AcPointCoincidenceConstraint
330
2DB
 90
      101
 70
     0
 90
        2
 90
       93
 90
       97
 90
        0
290
     0
290
     1
  1
AcConstrainedBoundedLine
330
2DB
 90
      102
 70
     1
 90
        3
 90
      104
 90
      106
 90
      364
330
2FD
 90
        0
 10
3599.240853781174
 20
1519.023886986562
 30
0.0
 10
0.0
 20
-1.0
 30
0.0
290
     0
 10
3599.240853781174
 20
1519.0212292722
 30
0.0
 11
3599.240853781174
 21
1508.7212292722
 31
0.0
  1
AcConstrainedImplicitPoint
330
2DB
 90
      103
 70
     1
 90
        3
 90
      104
 90
      107
 90
      340
330
0
 90
        0
280
     0
 90
       -1
 90
      102
  1
AcPointCurveConstraint
330
2DB
 90
      104
 70
     0
 90
        2
 90
      103
 90
      102
 90
        0
290
     1
290
     1
  1
AcConstrainedImplicitPoint
330
2DB
 90
      105
 70
     1
 90
        3
 90
      106
 90
      113
 90
      340
330
0
 90
        0
280
     1
 90
       -1
 90
      102
  1
AcPointCurveConstraint
330
2DB
 90
      106
 70
     0
 90
        2
 90
      105
 90
      102
 90
        0
290
     1
290
     1
  1
AcPointCoincidenceConstraint
330
2DB
 90
      107
 70
     0
 90
        2
 90
       99
 90
      103
 90
        0
290
     0
290
     1
  1
AcConstrainedBoundedLine
330
2DB
 90
      108
 70
     1
 90
        2
 90
      110
 90
      112
330
2FE
 90
        0
 10
3599.240853781174
 20
1508.7212292722
 30
0.0
 10
1.0
 20
0.0
 30
0.0
290
     0
 10
3599.240853781174
 20
1508.7212292722
 30
0.0
 11
3601.240853781174
 21
1508.7212292722
 31
0.0
  1
AcConstrainedImplicitPoint
330
2DB
 90
      109
 70
     1
 90
        3
 90
      110
 90
      113
 90
      251
330
0
 90
        0
280
     0
 90
       -1
 90
      108
  1
AcPointCurveConstraint
330
2DB
 90
      110
 70
     0
 90
        2
 90
      109
 90
      108
 90
        0
290
     1
290
     1
  1
AcConstrainedImplicitPoint
330
2DB
 90
      111
 70
     1
 90
        3
 90
      112
 90
      119
 90
      251
330
0
 90
        0
280
     1
 90
       -1
 90
      108
  1
AcPointCurveConstraint
330
2DB
 90
      112
 70
     0
 90
        2
 90
      111
 90
      108
 90
        0
290
     1
290
     1
  1
AcPointCoincidenceConstraint
330
2DB
 90
      113
 70
     0
 90
        2
 90
      105
 90
      109
 90
        0
290
     0
290
     1
  1
AcConstrainedBoundedLine
330
2DB
 90
      114
 70
     1
 90
        2
 90
      116
 90
      118
330
2FF
 90
        0
 10
3601.240525731969
 20
1508.421223293717
 30
0.0
 10
-0.0010934749043372
 20
-0.9999994021561633
 30
0.0
290
     0
 10
3601.240853781174
 20
1508.7212292722
 30
0.0
 11
3601.229590982927
 21
1498.4212292722
 31
0.0
  1
AcConstrainedImplicitPoint
330
2DB
 90
      115
 70
     1
 90
        3
 90
      116
 90
      119
 90
      350
330
0
 90
        0
280
     0
 90
       -1
 90
      114
  1
AcPointCurveConstraint
330
2DB
 90
      116
 70
     0
 90
        2
 90
      115
 90
      114
 90
        0
290
     1
290
     1
  1
AcConstrainedImplicitPoint
330
2DB
 90
      117
 70
     1
 90
        3
 90
      118
 90
      125
 90
      350
330
0
 90
        0
280
     1
 90
       -1
 90
      114
  1
AcPointCurveConstraint
330
2DB
 90
      118
 70
     0
 90
        2
 90
      117
 90
      114
 90
        0
290
     1
290
     1
  1
AcPointCoincidenceConstraint
330
2DB
 90
      119
 70
     0
 90
        2
 90
      115
 90
      111
 90
        0
290
     0
290
     1
  1
AcConstrainedBoundedLine
330
2DB
 90
      120
 70
     1
 90
        3
 90
      122
 90
      124
 90
      367
330
300
 90
        0
 10
3601.247493423708
 20
1498.421229272199
 30
0.0
 10
1.0
 20
0.0
 30
0.0
290
     0
 10
3601.229590982927
 20
1498.4212292722
 30
0.0
 11
3698.229590982926
 21
1498.4212292722
 31
0.0
  1
AcConstrainedImplicitPoint
330
2DB
 90
      121
 70
     1
 90
        3
 90
      122
 90
      125
 90
      242
330
0
 90
        0
280
     0
 90
       -1
 90
      120
  1
AcPointCurveConstraint
330
2DB
 90
      122
 70
     0
 90
        2
 90
      121
 90
      120
 90
        0
290
     1
290
     1
  1
AcConstrainedImplicitPoint
330
2DB
 90
      123
 70
     1
 90
        3
 90
      124
 90
      131
 90
      242
330
0
 90
        0
280
     1
 90
       -1
 90
      120
  1
AcPointCurveConstraint
330
2DB
 90
      124
 70
     0
 90
        2
 90
      123
 90
      120
 90
        0
290
     1
290
     1
  1
AcPointCoincidenceConstraint
330
2DB
 90
      125
 70
     0
 90
        2
 90
      117
 90
      121
 90
        0
290
     0
290
     1
  1
AcConstrainedBoundedLine
330
2DB
 90
      126
 70
     1
 90
        3
 90
      128
 90
      130
 90
      365
330
30D
 90
        0
 10
3698.229590982926
 20
1498.427823126101
 30
0.0
 10
0.0
 20
1.0
 30
0.0
290
     0
 10
3698.229590982926
 20
1498.4212292722
 30
0.0
 11
3698.229590982926
 21
1508.7212292722
 31
0.0
  1
AcConstrainedImplicitPoint
330
2DB
 90
      127
 70
     1
 90
        3
 90
      128
 90
      131
 90
      345
330
0
 90
        0
280
     0
 90
       -1
 90
      126
  1
AcPointCurveConstraint
330
2DB
 90
      128
 70
     0
 90
        2
 90
      127
 90
      126
 90
        0
290
     1
290
     1
  1
AcConstrainedImplicitPoint
330
2DB
 90
      129
 70
     1
 90
        2
 90
      130
 90
      137
330
0
 90
        0
280
     1
 90
       -1
 90
      126
  1
AcPointCurveConstraint
330
2DB
 90
      130
 70
     0
 90
        2
 90
      129
 90
      126
 90
        0
290
     1
290
     1
  1
AcPointCoincidenceConstraint
330
2DB
 90
      131
 70
     0
 90
        2
 90
      123
 90
      127
 90
        0
290
     0
290
     1
  1
AcConstrainedBoundedLine
330
2DB
 90
      132
 70
     1
 90
        3
 90
      134
 90
      136
 90
      366
330
30E
 90
        0
 10
3699.334542763799
 20
1508.721229272199
 30
0.0
 10
-1.0
 20
0.0
 30
0.0
290
     0
 10
3698.229590982926
 20
1508.7212292722
 30
0.0
 11
3696.229590982927
 21
1508.7212292722
 31
0.0
  1
AcConstrainedImplicitPoint
330
2DB
 90
      133
 70
     1
 90
        4
 90
      134
 90
      137
 90
      252
 90
      345
330
0
 90
        0
280
     0
 90
       -1
 90
      132
  1
AcPointCurveConstraint
330
2DB
 90
      134
 70
     0
 90
        2
 90
      133
 90
      132
 90
        0
290
     1
290
     1
  1
AcConstrainedImplicitPoint
330
2DB
 90
      135
 70
     1
 90
        3
 90
      136
 90
      143
 90
      252
330
0
 90
        0
280
     1
 90
       -1
 90
      132
  1
AcPointCurveConstraint
330
2DB
 90
      136
 70
     0
 90
        2
 90
      135
 90
      132
 90
        0
290
     1
290
     1
  1
AcPointCoincidenceConstraint
330
2DB
 90
      137
 70
     0
 90
        2
 90
      129
 90
      133
 90
        0
290
     0
290
     1
  1
AcConstrainedBoundedLine
330
2DB
 90
      138
 70
     1
 90
        3
 90
      140
 90
      142
 90
      388
330
30F
 90
        0
 10
3696.229590982927
 20
1508.7212292722
 30
0.0
 10
0.0
 20
1.0
 30
0.0
290
     0
 10
3696.229590982927
 20
1508.7212292722
 30
0.0
 11
3696.229590982927
 21
1518.721229272199
 31
0.0
  1
AcConstrainedImplicitPoint
330
2DB
 90
      139
 70
     1
 90
        3
 90
      140
 90
      143
 90
      355
330
0
 90
        0
280
     0
 90
       -1
 90
      138
  1
AcPointCurveConstraint
330
2DB
 90
      140
 70
     0
 90
        2
 90
      139
 90
      138
 90
        0
290
     1
290
     1
  1
AcConstrainedImplicitPoint
330
2DB
 90
      141
 70
     1
 90
        2
 90
      142
 90
      258
330
0
 90
        0
280
     1
 90
       -1
 90
      138
  1
AcPointCurveConstraint
330
2DB
 90
      142
 70
     0
 90
        2
 90
      141
 90
      138
 90
        0
290
     1
290
     1
  1
AcPointCoincidenceConstraint
330
2DB
 90
      143
 70
     0
 90
        2
 90
      135
 90
      139
 90
        0
290
     0
290
     1
  1
AcConstrainedBoundedLine
330
2DB
 90
      168
 70
     1
 90
        2
 90
      170
 90
      172
330
316
 90
        0
 10
3696.229590982883
 20
1539.021229272199
 30
0.0
 10
0.999999994589416
 20
0.0001040230010858
 30
0.0
290
     0
 10
3696.229590982926
 20
1539.0212292722
 30
0.0
 11
3698.229590982926
 21
1539.021437318203
 31
0.0
  1
AcConstrainedImplicitPoint
330
2DB
 90
      169
 70
     1
 90
        3
 90
      170
 90
      277
 90
      280
330
0
 90
        0
280
     0
 90
       -1
 90
      168
  1
AcPointCurveConstraint
330
2DB
 90
      170
 70
     0
 90
        2
 90
      169
 90
      168
 90
        0
290
     1
290
     1
  1
AcConstrainedImplicitPoint
330
2DB
 90
      171
 70
     1
 90
        2
 90
      172
 90
      179
330
0
 90
        0
280
     1
 90
       -1
 90
      168
  1
AcPointCurveConstraint
330
2DB
 90
      172
 70
     0
 90
        2
 90
      171
 90
      168
 90
        0
290
     1
290
     1
  1
AcConstrainedBoundedLine
330
2DB
 90
      174
 70
     1
 90
        3
 90
      176
 90
      178
 90
      373
330
317
 90
        0
 10
3698.229590982926
 20
1539.017096763631
 30
0.0
 10
0.0
 20
1.0
 30
0.0
290
     0
 10
3698.229590982926
 20
1539.021437318203
 30
0.0
 11
3698.229590982926
 21
1549.321437318203
 31
0.0
  1
AcConstrainedImplicitPoint
330
2DB
 90
      175
 70
     1
 90
        4
 90
      176
 90
      179
 90
      280
 90
      343
330
0
 90
        0
280
     0
 90
       -1
 90
      174
  1
AcPointCurveConstraint
330
2DB
 90
      176
 70
     0
 90
        2
 90
      175
 90
      174
 90
        0
290
     1
290
     1
  1
AcConstrainedImplicitPoint
330
2DB
 90
      177
 70
     1
 90
        4
 90
      178
 90
      185
 90
      288
 90
      343
330
0
 90
        0
280
     1
 90
       -1
 90
      174
  1
AcPointCurveConstraint
330
2DB
 90
      178
 70
     0
 90
        2
 90
      177
 90
      174
 90
        0
290
     1
290
     1
  1
AcPointCoincidenceConstraint
330
2DB
 90
      179
 70
     0
 90
        2
 90
      171
 90
      175
 90
        0
290
     0
290
     1
  1
AcConstrainedBoundedLine
330
2DB
 90
      180
 70
     1
 90
        3
 90
      182
 90
      184
 90
      371
330
318
 90
        0
 10
3698.751094858796
 20
1549.321437318203
 30
0.0
 10
-1.0
 20
0.0
 30
0.0
290
     0
 10
3698.229590982926
 20
1549.321437318203
 30
0.0
 11
3696.229590982926
 21
1549.321437318203
 31
0.0
  1
AcConstrainedImplicitPoint
330
2DB
 90
      181
 70
     1
 90
        2
 90
      182
 90
      185
330
0
 90
        0
280
     0
 90
       -1
 90
      180
  1
AcPointCurveConstraint
330
2DB
 90
      182
 70
     0
 90
        2
 90
      181
 90
      180
 90
        0
290
     1
290
     1
  1
AcConstrainedImplicitPoint
330
2DB
 90
      183
 70
     1
 90
        2
 90
      184
 90
      286
330
0
 90
        0
280
     1
 90
       -1
 90
      180
  1
AcPointCurveConstraint
330
2DB
 90
      184
 70
     0
 90
        2
 90
      183
 90
      180
 90
        0
290
     1
290
     1
  1
AcPointCoincidenceConstraint
330
2DB
 90
      185
 70
     0
 90
        2
 90
      177
 90
      181
 90
        0
290
     0
290
     1
  1
AcConstrainedBoundedLine
330
2DB
 90
      192
 70
     1
 90
        2
 90
      194
 90
      196
330
323
 90
        0
 10
3696.229590982915
 20
1559.321437318203
 30
0.0
 10
1.0
 20
0.0
 30
0.0
290
     0
 10
3696.229590982926
 20
1559.321437318203
 30
0.0
 11
3698.229590982926
 21
1559.321437318203
 31
0.0
  1
AcConstrainedImplicitPoint
330
2DB
 90
      193
 70
     1
 90
        2
 90
      194
 90
      287
330
0
 90
        0
280
     0
 90
       -1
 90
      192
  1
AcPointCurveConstraint
330
2DB
 90
      194
 70
     0
 90
        2
 90
      193
 90
      192
 90
        0
290
     1
290
     1
  1
AcConstrainedImplicitPoint
330
2DB
 90
      195
 70
     1
 90
        2
 90
      196
 90
      289
330
0
 90
        0
280
     1
 90
       -1
 90
      192
  1
AcPointCurveConstraint
330
2DB
 90
      196
 70
     0
 90
        2
 90
      195
 90
      192
 90
        0
290
     1
290
     1
  1
AcConstrainedBoundedLine
330
2DB
 90
      216
 70
     1
 90
        2
 90
      218
 90
      220
330
329
 90
        0
 10
3695.441013480856
 20
1579.908772542306
 30
0.0
 10
1.0
 20
0.0
 30
0.0
290
     0
 10
3696.441013480893
 20
1579.908772542306
 30
0.0
 11
3698.441013480893
 21
1579.908772542306
 31
0.0
  1
AcConstrainedImplicitPoint
330
2DB
 90
      217
 70
     1
 90
        2
 90
      218
 90
      307
330
0
 90
        0
280
     0
 90
       -1
 90
      216
  1
AcPointCurveConstraint
330
2DB
 90
      218
 70
     0
 90
        2
 90
      217
 90
      216
 90
        0
290
     1
290
     1
  1
AcConstrainedImplicitPoint
330
2DB
 90
      219
 70
     1
 90
        2
 90
      220
 90
      315
330
0
 90
        0
280
     1
 90
       -1
 90
      216
  1
AcPointCurveConstraint
330
2DB
 90
      220
 70
     0
 90
        2
 90
      219
 90
      216
 90
        0
290
     1
290
     1
  1
AcDistanceConstraint
330
2DB
 90
      242
 70
     0
 90
        2
 90
      121
 90
      123
 90
        0
290
     0
290
     1
340
356
340
357
280
     1
 10
-1.0
 20
0.0
 30
0.0
  1
AcDistanceConstraint
330
2DB
 90
      243
 70
     0
 90
        2
 90
        7
 90
       13
 90
        0
290
     0
290
     1
340
35C
340
35D
280
     1
 10
-1.0
 20
0.0
 30
0.0
  1
AcDistanceConstraint
330
2DB
 90
      244
 70
     0
 90
        2
 90
       31
 90
       25
 90
        0
290
     0
290
     1
340
361
340
362
280
     1
 10
-1.0
 20
0.0
 30
0.0
  1
AcDistanceConstraint
330
2DB
 90
      245
 70
     0
 90
        2
 90
       37
 90
       43
 90
        0
290
     0
290
     1
340
366
340
367
280
     1
 10
-1.0
 20
0.0
 30
0.0
  1
AcDistanceConstraint
330
2DB
 90
      246
 70
     0
 90
        2
 90
       51
 90
       49
 90
        0
290
     0
290
     1
340
36B
340
36C
280
     1
 10
-1.0
 20
0.0
 30
0.0
  1
AcDistanceConstraint
330
2DB
 90
      247
 70
     0
 90
        2
 90
       61
 90
       67
 90
        0
290
     0
290
     1
340
370
340
371
280
     1
 10
-1.0
 20
0.0
 30
0.0
  1
AcDistanceConstraint
330
2DB
 90
      248
 70
     0
 90
        2
 90
       75
 90
       73
 90
        0
290
     0
290
     1
340
375
340
376
280
     1
 10
-1.0
 20
0.0
 30
0.0
  1
AcDistanceConstraint
330
2DB
 90
      249
 70
     0
 90
        2
 90
       85
 90
       91
 90
        0
290
     0
290
     1
340
37A
340
37B
280
     1
 10
-1.0
 20
0.0
 30
0.0
  1
AcDistanceConstraint
330
2DB
 90
      250
 70
     0
 90
        2
 90
       99
 90
       97
 90
        0
290
     0
290
     1
340
37F
340
380
280
     1
 10
-1.0
 20
0.0
 30
0.0
  1
AcDistanceConstraint
330
2DB
 90
      251
 70
     0
 90
        2
 90
      109
 90
      111
 90
        0
290
     0
290
     1
340
384
340
385
280
     1
 10
-1.0
 20
0.0
 30
0.0
  1
AcDistanceConstraint
330
2DB
 90
      252
 70
     0
 90
        2
 90
      133
 90
      135
 90
        0
290
     0
290
     1
340
389
340
38A
280
     1
 10
1.0
 20
0.0
 30
0.0
  1
AcConstrainedBoundedLine
330
2DB
 90
      253
 70
     1
 90
        2
 90
      255
 90
      257
330
390
 90
        0
 10
3697.233366704007
 20
1518.721229272199
 30
0.0
 10
1.0
 20
0.0
 30
0.0
290
     0
 10
3696.229590982927
 20
1518.721229272199
 30
0.0
 11
3698.229590982926
 21
1518.721229272199
 31
0.0
  1
AcConstrainedImplicitPoint
330
2DB
 90
      254
 70
     1
 90
        4
 90
      255
 90
      258
 90
      335
 90
      355
330
0
 90
        0
280
     0
 90
       -1
 90
      253
  1
AcPointCurveConstraint
330
2DB
 90
      255
 70
     0
 90
        2
 90
      254
 90
      253
 90
        0
290
     1
290
     1
  1
AcConstrainedImplicitPoint
330
2DB
 90
      256
 70
     1
 90
        2
 90
      257
 90
      264
330
0
 90
        0
280
     1
 90
       -1
 90
      253
  1
AcPointCurveConstraint
330
2DB
 90
      257
 70
     0
 90
        2
 90
      256
 90
      253
 90
        0
290
     1
290
     1
  1
AcPointCoincidenceConstraint
330
2DB
 90
      258
 70
     0
 90
        2
 90
      141
 90
      254
 90
        0
290
     0
290
     1
  1
AcConstrainedBoundedLine
330
2DB
 90
      259
 70
     1
 90
        3
 90
      261
 90
      263
 90
      334
330
391
 90
        0
 10
3698.229590982926
 20
1518.72122396064
 30
0.0
 10
0.0
 20
1.0
 30
0.0
290
     0
 10
3698.229590982926
 20
1518.721229272199
 30
0.0
 11
3698.229590982926
 21
1529.021229272199
 31
0.0
  1
AcConstrainedImplicitPoint
330
2DB
 90
      260
 70
     1
 90
        4
 90
      261
 90
      264
 90
      335
 90
      344
330
0
 90
        0
280
     0
 90
       -1
 90
      259
  1
AcPointCurveConstraint
330
2DB
 90
      261
 70
     0
 90
        2
 90
      260
 90
      259
 90
        0
290
     1
290
     1
  1
AcConstrainedImplicitPoint
330
2DB
 90
      262
 70
     1
 90
        2
 90
      263
 90
      270
330
0
 90
        0
280
     1
 90
       -1
 90
      259
  1
AcPointCurveConstraint
330
2DB
 90
      263
 70
     0
 90
        2
 90
      262
 90
      259
 90
        0
290
     1
290
     1
  1
AcPointCoincidenceConstraint
330
2DB
 90
      264
 70
     0
 90
        2
 90
      256
 90
      260
 90
        0
290
     0
290
     1
  1
AcConstrainedBoundedLine
330
2DB
 90
      265
 70
     1
 90
        3
 90
      267
 90
      269
 90
      380
330
392
 90
        0
 10
3699.2398945632
 20
1529.021229272199
 30
0.0
 10
-1.0
 20
0.0
 30
0.0
290
     0
 10
3698.229590982926
 20
1529.021229272199
 30
0.0
 11
3696.229590982927
 21
1529.021229272199
 31
0.0
  1
AcConstrainedImplicitPoint
330
2DB
 90
      266
 70
     1
 90
        4
 90
      267
 90
      270
 90
      279
 90
      344
330
0
 90
        0
280
     0
 90
       -1
 90
      265
  1
AcPointCurveConstraint
330
2DB
 90
      267
 70
     0
 90
        2
 90
      266
 90
      265
 90
        0
290
     1
290
     1
  1
AcConstrainedImplicitPoint
330
2DB
 90
      268
 70
     1
 90
        3
 90
      269
 90
      276
 90
      279
330
0
 90
        0
280
     1
 90
       -1
 90
      265
  1
AcPointCurveConstraint
330
2DB
 90
      269
 70
     0
 90
        2
 90
      268
 90
      265
 90
        0
290
     1
290
     1
  1
AcPointCoincidenceConstraint
330
2DB
 90
      270
 70
     0
 90
        2
 90
      262
 90
      266
 90
        0
290
     0
290
     1
  1
AcConstrainedBoundedLine
330
2DB
 90
      271
 70
     1
 90
        3
 90
      273
 90
      275
 90
      381
330
393
 90
        0
 10
3696.229590982927
 20
1529.021226616044
 30
0.0
 10
0.0
 20
1.0
 30
0.0
290
     0
 10
3696.229590982927
 20
1529.021229272199
 30
0.0
 11
3696.229590982926
 21
1539.0212292722
 31
0.0
  1
AcConstrainedImplicitPoint
330
2DB
 90
      272
 70
     1
 90
        3
 90
      273
 90
      276
 90
      354
330
0
 90
        0
280
     0
 90
       -1
 90
      271
  1
AcPointCurveConstraint
330
2DB
 90
      273
 70
     0
 90
        2
 90
      272
 90
      271
 90
        0
290
     1
290
     1
  1
AcConstrainedImplicitPoint
330
2DB
 90
      274
 70
     1
 90
        3
 90
      275
 90
      277
 90
      354
330
0
 90
        0
280
     1
 90
       -1
 90
      271
  1
AcPointCurveConstraint
330
2DB
 90
      275
 70
     0
 90
        2
 90
      274
 90
      271
 90
        0
290
     1
290
     1
  1
AcPointCoincidenceConstraint
330
2DB
 90
      276
 70
     0
 90
        2
 90
      268
 90
      272
 90
        0
290
     0
290
     1
  1
AcPointCoincidenceConstraint
330
2DB
 90
      277
 70
     0
 90
        2
 90
      274
 90
      169
 90
        0
290
     0
290
     1
  1
AcDistanceConstraint
330
2DB
 90
      279
 70
     0
 90
        2
 90
      266
 90
      268
 90
        0
290
     0
290
     1
340
39C
340
39D
280
     1
 10
1.0
 20
0.0
 30
0.0
  1
AcDistanceConstraint
330
2DB
 90
      280
 70
     0
 90
        2
 90
      169
 90
      175
 90
        0
290
     0
290
     1
340
3A1
340
3A2
280
     1
 10
-1.0
 20
0.0
 30
0.0
  1
AcConstrainedBoundedLine
330
2DB
 90
      281
 70
     1
 90
        3
 90
      283
 90
      285
 90
      372
330
3A5
 90
        0
 10
3696.229590982926
 20
1616.326032195923
 30
0.0
 10
0.0
 20
1.0
 30
0.0
290
     0
 10
3696.229590982926
 20
1549.321437318203
 30
0.0
 11
3696.229590982926
 21
1559.321437318203
 31
0.0
  1
AcConstrainedImplicitPoint
330
2DB
 90
      282
 70
     1
 90
        4
 90
      283
 90
      286
 90
      288
 90
      353
330
0
 90
        0
280
     0
 90
       -1
 90
      281
  1
AcPointCurveConstraint
330
2DB
 90
      283
 70
     0
 90
        2
 90
      282
 90
      281
 90
        0
290
     1
290
     1
  1
AcConstrainedImplicitPoint
330
2DB
 90
      284
 70
     1
 90
        4
 90
      285
 90
      287
 90
      289
 90
      353
330
0
 90
        0
280
     1
 90
       -1
 90
      281
  1
AcPointCurveConstraint
330
2DB
 90
      285
 70
     0
 90
        2
 90
      284
 90
      281
 90
        0
290
     1
290
     1
  1
AcPointCoincidenceConstraint
330
2DB
 90
      286
 70
     0
 90
        2
 90
      183
 90
      282
 90
        0
290
     0
290
     1
  1
AcPointCoincidenceConstraint
330
2DB
 90
      287
 70
     0
 90
        2
 90
      284
 90
      193
 90
        0
290
     0
290
     1
  1
AcDistanceConstraint
330
2DB
 90
      288
 70
     0
 90
        2
 90
      177
 90
      282
 90
        0
290
     0
290
     1
340
3A8
340
3A9
280
     1
 10
1.0
 20
0.0
 30
0.0
  1
AcDistanceConstraint
330
2DB
 90
      289
 70
     0
 90
        2
 90
      284
 90
      195
 90
        0
290
     0
290
     1
340
3AD
340
3AE
280
     1
 10
-1.0
 20
0.0
 30
0.0
  1
AcConstrainedBoundedLine
330
2DB
 90
      290
 70
     1
 90
        2
 90
      292
 90
      294
330
3B3
 90
        0
 10
3698.441864358238
 20
1559.758772568552
 30
0.0
 10
-0.000102462558516
 20
0.9999999947506239
 30
0.0
290
     0
 10
3698.441879727624
 20
1559.608772542305
 30
0.0
 11
3698.440824363266
 21
1569.908772542305
 31
0.0
  1
AcConstrainedImplicitPoint
330
2DB
 90
      291
 70
     1
 90
        2
 90
      292
 90
      342
330
0
 90
        0
280
     0
 90
       -1
 90
      290
  1
AcPointCurveConstraint
330
2DB
 90
      292
 70
     0
 90
        2
 90
      291
 90
      290
 90
        0
290
     1
290
     1
  1
AcConstrainedImplicitPoint
330
2DB
 90
      293
 70
     1
 90
        3
 90
      294
 90
      300
 90
      342
330
0
 90
        0
280
     1
 90
       -1
 90
      290
  1
AcPointCurveConstraint
330
2DB
 90
      294
 70
     0
 90
        2
 90
      293
 90
      290
 90
        0
290
     1
290
     1
  1
AcConstrainedBoundedLine
330
2DB
 90
      295
 70
     1
 90
        2
 90
      297
 90
      299
330
3B4
 90
        0
 10
3699.440824363229
 20
1569.908772542305
 30
0.0
 10
-1.0
 20
0.0000000000002274
 30
0.0
290
     0
 10
3698.440824363266
 20
1569.908772542305
 30
0.0
 11
3696.440824363266
 21
1569.908772542305
 31
0.0
  1
AcConstrainedImplicitPoint
330
2DB
 90
      296
 70
     1
 90
        3
 90
      297
 90
      300
 90
      308
330
0
 90
        0
280
     0
 90
       -1
 90
      295
  1
AcPointCurveConstraint
330
2DB
 90
      297
 70
     0
 90
        2
 90
      296
 90
      295
 90
        0
290
     1
290
     1
  1
AcConstrainedImplicitPoint
330
2DB
 90
      298
 70
     1
 90
        2
 90
      299
 90
      306
330
0
 90
        0
280
     1
 90
       -1
 90
      295
  1
AcPointCurveConstraint
330
2DB
 90
      299
 70
     0
 90
        2
 90
      298
 90
      295
 90
        0
290
     1
290
     1
  1
AcPointCoincidenceConstraint
330
2DB
 90
      300
 70
     0
 90
        2
 90
      293
 90
      296
 90
        0
290
     0
290
     1
  1
AcConstrainedBoundedLine
330
2DB
 90
      301
 70
     1
 90
        2
 90
      303
 90
      305
330
3B5
 90
        0
 10
3696.440824363266
 20
1569.908772544082
 30
0.0
 10
0.0000189117627087
 20
0.9999999998212842
 30
0.0
290
     0
 10
3696.440824363266
 20
1569.908772542305
 30
0.0
 11
3696.441013480893
 21
1579.908772542306
 31
0.0
  1
AcConstrainedImplicitPoint
330
2DB
 90
      302
 70
     1
 90
        4
 90
      303
 90
      306
 90
      308
 90
      352
330
0
 90
        0
280
     0
 90
       -1
 90
      301
  1
AcPointCurveConstraint
330
2DB
 90
      303
 70
     0
 90
        2
 90
      302
 90
      301
 90
        0
290
     1
290
     1
  1
AcConstrainedImplicitPoint
330
2DB
 90
      304
 70
     1
 90
        4
 90
      305
 90
      307
 90
      329
 90
      352
330
0
 90
        0
280
     1
 90
       -1
 90
      301
  1
AcPointCurveConstraint
330
2DB
 90
      305
 70
     0
 90
        2
 90
      304
 90
      301
 90
        0
290
     1
290
     1
  1
AcPointCoincidenceConstraint
330
2DB
 90
      306
 70
     0
 90
        2
 90
      298
 90
      302
 90
        0
290
     0
290
     1
  1
AcPointCoincidenceConstraint
330
2DB
 90
      307
 70
     0
 90
        2
 90
      304
 90
      217
 90
        0
290
     0
290
     1
  1
AcDistanceConstraint
330
2DB
 90
      308
 70
     0
 90
        2
 90
      296
 90
      302
 90
        0
290
     0
290
     1
340
3B8
340
3B9
280
     1
 10
1.0
 20
0.0
 30
0.0
  1
AcConstrainedBoundedLine
330
2DB
 90
      310
 70
     1
 90
        3
 90
      312
 90
      314
 90
      370
330
3C4
 90
        0
 10
3698.441013480893
 20
1580.058772461381
 30
0.0
 10
0.0
 20
1.0
 30
0.0
290
     0
 10
3698.441013480893
 20
1579.908772542306
 30
0.0
 11
3698.441013480894
 21
1590.208772542306
 31
0.0
  1
AcConstrainedImplicitPoint
330
2DB
 90
      311
 70
     1
 90
        4
 90
      312
 90
      315
 90
      329
 90
      341
330
0
 90
        0
280
     0
 90
       -1
 90
      310
  1
AcPointCurveConstraint
330
2DB
 90
      312
 70
     0
 90
        2
 90
      311
 90
      310
 90
        0
290
     1
290
     1
  1
AcConstrainedImplicitPoint
330
2DB
 90
      313
 70
     1
 90
        2
 90
      314
 90
      321
330
0
 90
        0
280
     1
 90
       -1
 90
      310
  1
AcPointCurveConstraint
330
2DB
 90
      314
 70
     0
 90
        2
 90
      313
 90
      310
 90
        0
290
     1
290
     1
  1
AcPointCoincidenceConstraint
330
2DB
 90
      315
 70
     0
 90
        2
 90
      311
 90
      219
 90
        0
290
     0
290
     1
  1
AcConstrainedBoundedLine
330
2DB
 90
      316
 70
     1
 90
        2
 90
      318
 90
      320
330
3C5
 90
        0
 10
3698.441013480858
 20
1590.208772542306
 30
0.0
 10
-0.9999806042992531
 20
0.0062282441433581
 30
0.0
290
     0
 10
3698.441013480894
 20
1590.208772542306
 30
0.0
 11
3696.441013480893
 21
1590.221229272199
 31
0.0
  1
AcConstrainedImplicitPoint
330
2DB
 90
      317
 70
     1
 90
        4
 90
      318
 90
      321
 90
      330
 90
      341
330
0
 90
        0
280
     0
 90
       -1
 90
      316
  1
AcPointCurveConstraint
330
2DB
 90
      318
 70
     0
 90
        2
 90
      317
 90
      316
 90
        0
290
     1
290
     1
  1
AcConstrainedImplicitPoint
330
2DB
 90
      319
 70
     1
 90
        2
 90
      320
 90
      327
330
0
 90
        0
280
     1
 90
       -1
 90
      316
  1
AcPointCurveConstraint
330
2DB
 90
      320
 70
     0
 90
        2
 90
      319
 90
      316
 90
        0
290
     1
290
     1
  1
AcPointCoincidenceConstraint
330
2DB
 90
      321
 70
     0
 90
        2
 90
      313
 90
      317
 90
        0
290
     0
290
     1
  1
AcConstrainedBoundedLine
330
2DB
 90
      322
 70
     1
 90
        3
 90
      324
 90
      326
 90
      369
330
3C6
 90
        0
 10
3696.441013480893
 20
1590.221229272198
 30
0.0
 10
0.0
 20
1.0
 30
0.0
290
     0
 10
3696.441013480893
 20
1590.221229272199
 30
0.0
 11
3696.441013480893
 21
1600.221229272199
 31
0.0
  1
AcConstrainedImplicitPoint
330
2DB
 90
      323
 70
     1
 90
        4
 90
      324
 90
      327
 90
      330
 90
      351
330
0
 90
        0
280
     0
 90
       -1
 90
      322
  1
AcPointCurveConstraint
330
2DB
 90
      324
 70
     0
 90
        2
 90
      323
 90
      322
 90
        0
290
     1
290
     1
  1
AcConstrainedImplicitPoint
330
2DB
 90
      325
 70
     1
 90
        4
 90
      326
 90
      328
 90
      331
 90
      351
330
0
 90
        0
280
     1
 90
       -1
 90
      322
  1
AcPointCurveConstraint
330
2DB
 90
      326
 70
     0
 90
        2
 90
      325
 90
      322
 90
        0
290
     1
290
     1
  1
AcPointCoincidenceConstraint
330
2DB
 90
      327
 70
     0
 90
        2
 90
      323
 90
      319
 90
        0
290
     0
290
     1
  1
AcPointCoincidenceConstraint
330
2DB
 90
      328
 70
     0
 90
        2
 90
      325
 90
       21
 90
        0
290
     0
290
     1
  1
AcDistanceConstraint
330
2DB
 90
      329
 70
     0
 90
        2
 90
      304
 90
      311
 90
        0
290
     0
290
     1
340
3C9
340
3CA
280
     1
 10
-1.0
 20
0.0
 30
0.0
  1
AcDistanceConstraint
330
2DB
 90
      330
 70
     0
 90
        2
 90
      323
 90
      317
 90
        0
290
     0
290
     1
340
3CE
340
3CF
280
     1
 10
-1.0
 20
0.0
 30
0.0
  1
AcDistanceConstraint
330
2DB
 90
      331
 70
     0
 90
        2
 90
       19
 90
      325
 90
        0
290
     0
290
     1
340
3E6
340
3E7
280
     1
 10
-1.0
 20
0.0
 30
0.0
  1
AcConstrainedDatumLine
330
2DB
 90
      333
 70
     0
 90
        0
330
0
 90
        0
 10
0.0
 20
0.0
 30
0.0
 10
0.0
 20
1.0
 30
0.0
  1
AcVerticalConstraint
330
2DB
 90
      334
 70
     0
 90
        1
 90
      259
 90
        0
290
     0
290
     1
 90
      333
  1
AcDistanceConstraint
330
2DB
 90
      335
 70
     0
 90
        2
 90
      254
 90
      260
 90
        0
290
     0
290
     1
340
3F1
340
3F2
280
     1
 10
-1.0
 20
0.0
 30
0.0
  1
AcDistanceConstraint
330
2DB
 90
      336
 70
     0
 90
        2
 90
        9
 90
        7
 90
        0
290
     0
290
     1
340
40E
340
40F
280
     1
 10
0.0
 20
1.0
 30
0.0
  1
AcDistanceConstraint
330
2DB
 90
      337
 70
     0
 90
        2
 90
       31
 90
       33
 90
        0
290
     0
290
     1
340
413
340
414
280
     1
 10
0.0
 20
1.0
 30
0.0
  1
AcDistanceConstraint
330
2DB
 90
      338
 70
     0
 90
        2
 90
       55
 90
       57
 90
        0
290
     0
290
     1
340
418
340
419
280
     1
 10
0.0
 20
1.0
 30
0.0
  1
AcDistanceConstraint
330
2DB
 90
      339
 70
     0
 90
        2
 90
       79
 90
       81
 90
        0
290
     0
290
     1
340
41D
340
41E
280
     1
 10
0.0
 20
1.0
 30
0.0
  1
AcDistanceConstraint
330
2DB
 90
      340
 70
     0
 90
        2
 90
      103
 90
      105
 90
        0
290
     0
290
     1
340
422
340
423
280
     1
 10
0.0
 20
1.0
 30
0.0
  1
AcDistanceConstraint
330
2DB
 90
      341
 70
     0
 90
        2
 90
      317
 90
      311
 90
        0
290
     0
290
     1
340
42C
340
42D
280
     1
 10
0.0
 20
1.0
 30
0.0
  1
AcDistanceConstraint
330
2DB
 90
      342
 70
     0
 90
        2
 90
      293
 90
      291
 90
        0
290
     0
290
     1
340
431
340
432
280
     1
 10
0.0
 20
1.0
 30
0.0
  1
AcDistanceConstraint
330
2DB
 90
      343
 70
     0
 90
        2
 90
      177
 90
      175
 90
        0
290
     0
290
     1
340
436
340
437
280
     1
 10
0.0
 20
1.0
 30
0.0
  1
AcDistanceConstraint
330
2DB
 90
      344
 70
     0
 90
        2
 90
      266
 90
      260
 90
        0
290
     0
290
     1
340
43B
340
43C
280
     1
 10
0.0
 20
1.0
 30
0.0
  1
AcDistanceConstraint
330
2DB
 90
      345
 70
     0
 90
        2
 90
      133
 90
      127
 90
        0
290
     0
290
     1
340
440
340
441
280
     1
 10
0.0
 20
1.0
 30
0.0
  1
AcDistanceConstraint
330
2DB
 90
      346
 70
     0
 90
        2
 90
       13
 90
       15
 90
        0
290
     0
290
     1
340
44A
340
44B
280
     1
 10
0.0
 20
1.0
 30
0.0
  1
AcDistanceConstraint
330
2DB
 90
      347
 70
     0
 90
        2
 90
       43
 90
       45
 90
        0
290
     0
290
     1
340
44F
340
450
280
     1
 10
0.0
 20
1.0
 30
0.0
  1
AcDistanceConstraint
330
2DB
 90
      348
 70
     0
 90
        2
 90
       67
 90
       73
 90
        0
290
     0
290
     1
340
455
340
456
280
     1
 10
0.0
 20
1.0
 30
0.0
  1
AcDistanceConstraint
330
2DB
 90
      349
 70
     0
 90
        2
 90
       91
 90
       97
 90
        0
290
     0
290
     1
340
45A
340
45B
280
     1
 10
0.0
 20
1.0
 30
0.0
  1
AcDistanceConstraint
330
2DB
 90
      350
 70
     0
 90
        2
 90
      115
 90
      117
 90
        0
290
     0
290
     1
340
45F
340
460
280
     1
 10
0.0
 20
1.0
 30
0.0
  1
AcDistanceConstraint
330
2DB
 90
      351
 70
     0
 90
        2
 90
      325
 90
      323
 90
        0
290
     0
290
     1
340
464
340
465
280
     1
 10
0.0
 20
1.0
 30
0.0
  1
AcDistanceConstraint
330
2DB
 90
      352
 70
     0
 90
        2
 90
      304
 90
      302
 90
        0
290
     0
290
     1
340
469
340
46A
280
     1
 10
0.0
 20
1.0
 30
0.0
  1
AcDistanceConstraint
330
2DB
 90
      353
 70
     0
 90
        2
 90
      284
 90
      282
 90
        0
290
     0
290
     1
340
46E
340
46F
280
     1
 10
0.0
 20
1.0
 30
0.0
  1
AcDistanceConstraint
330
2DB
 90
      354
 70
     0
 90
        2
 90
      274
 90
      272
 90
        0
290
     0
290
     1
340
473
340
474
280
     1
 10
0.0
 20
1.0
 30
0.0
  1
AcDistanceConstraint
330
2DB
 90
      355
 70
     0
 90
        2
 90
      139
 90
      254
 90
        0
290
     0
290
     1
340
478
340
479
280
     1
 10
0.0
 20
-1.0
 30
0.0
  1
AcConstrainedDatumLine
330
2DB
 90
      356
 70
     0
 90
        0
330
0
 90
        0
 10
0.0
 20
0.0
 30
0.0
 10
1.0
 20
0.0
 30
0.0
  1
AcHorizontalConstraint
330
2DB
 90
      357
 70
     0
 90
        1
 90
       24
 90
        0
290
     0
290
     1
 90
      356
  1
AcVerticalConstraint
330
2DB
 90
      358
 70
     0
 90
        1
 90
       30
 90
        0
290
     0
290
     1
 90
      333
  1
AcHorizontalConstraint
330
2DB
 90
      359
 70
     0
 90
        1
 90
       48
 90
        0
290
     0
290
     1
 90
      356
  1
AcHorizontalConstraint
330
2DB
 90
      360
 70
     0
 90
        1
 90
       72
 90
        0
290
     0
290
     1
 90
      356
  1
AcVerticalConstraint
330
2DB
 90
      361
 70
     0
 90
        1
 90
       90
 90
        0
290
     0
290
     1
 90
      333
  1
AcVerticalConstraint
330
2DB
 90
      362
 70
     0
 90
        1
 90
       78
 90
        0
290
     0
290
     1
 90
      333
  1
AcHorizontalConstraint
330
2DB
 90
      363
 70
     0
 90
        1
 90
       96
 90
        0
290
     0
290
     1
 90
      356
  1
AcVerticalConstraint
330
2DB
 90
      364
 70
     0
 90
        1
 90
      102
 90
        0
290
     0
290
     1
 90
      333
  1
AcVerticalConstraint
330
2DB
 90
      365
 70
     0
 90
        1
 90
      126
 90
        0
290
     0
290
     1
 90
      333
  1
AcHorizontalConstraint
330
2DB
 90
      366
 70
     0
 90
        1
 90
      132
 90
        0
290
     0
290
     1
 90
      356
  1
AcHorizontalConstraint
330
2DB
 90
      367
 70
     0
 90
        1
 90
      120
 90
        0
290
     0
290
     1
 90
      356
  1
AcHorizontalConstraint
330
2DB
 90
      368
 70
     0
 90
        1
 90
       18
 90
        0
290
     0
290
     1
 90
      356
  1
AcVerticalConstraint
330
2DB
 90
      369
 70
     0
 90
        1
 90
      322
 90
        0
290
     0
290
     1
 90
      333
  1
AcVerticalConstraint
330
2DB
 90
      370
 70
     0
 90
        1
 90
      310
 90
        0
290
     0
290
     1
 90
      333
  1
AcHorizontalConstraint
330
2DB
 90
      371
 70
     0
 90
        1
 90
      180
 90
        0
290
     0
290
     1
 90
      356
  1
AcVerticalConstraint
330
2DB
 90
      372
 70
     0
 90
        1
 90
      281
 90
        0
290
     0
290
     1
 90
      333
  1
AcVerticalConstraint
330
2DB
 90
      373
 70
     0
 90
        1
 90
      174
 90
        0
290
     0
290
     1
 90
      333
  1
AcHorizontalConstraint
330
2DB
 90
      380
 70
     0
 90
        1
 90
      265
 90
        0
290
     0
290
     1
 90
      356
  1
AcVerticalConstraint
330
2DB
 90
      381
 70
     0
 90
        1
 90
      271
 90
        0
290
     0
290
     1
 90
      333
  1
AcConstrainedBoundedLine
330
2DB
 90
      382
 70
     1
 90
        3
 90
      384
 90
      386
 90
      387
330
47E
 90
        0
 10
3696.211009265019
 20
1559.608772542305
 30
0.0
 10
1.0
 20
0.0
 30
0.0
290
     0
 10
3696.211009265019
 20
1559.608772542305
 30
0.0
 11
3698.441879727624
 21
1559.608772542305
 31
0.0
  1
AcConstrainedImplicitPoint
330
2DB
 90
      383
 70
     1
 90
        1
 90
      384
330
0
 90
        0
280
     0
 90
       -1
 90
      382
  1
AcPointCurveConstraint
330
2DB
 90
      384
 70
     0
 90
        2
 90
      383
 90
      382
 90
        0
290
     1
290
     1
  1
AcConstrainedImplicitPoint
330
2DB
 90
      385
 70
     1
 90
        1
 90
      386
330
0
 90
        0
280
     1
 90
       -1
 90
      382
  1
AcPointCurveConstraint
330
2DB
 90
      386
 70
     0
 90
        2
 90
      385
 90
      382
 90
        0
290
     1
290
     1
  1
AcHorizontalConstraint
330
2DB
 90
      387
 70
     0
 90
        1
 90
      382
 90
        0
290
     0
290
     1
 90
      356
  1
AcVerticalConstraint
330
2DB
 90
      388
 70
     0
 90
        1
 90
      138
 90
        0
290
     0
290
     1
 90
      333
  0
ACDBASSOCVARIABLE
  5
336
102
{ACAD_REACTORS
330
359
330
3E9
102
}
330
2D8
100
AcDbAssocAction
 90
        1
 90
        0
330
2D8
360
0
 90
        2
 90
        0
 90
        0
100
AcDbAssocVariable
 90
        2
  1
pestaña
  1
97
  1
AcDbCalc:1.0
  1

 90
       97
290
     0
290
     0
 90
        0
  0
ACDBASSOCVARIABLE
  5
337
102
{ACAD_REACTORS
330
3D1
330
3D2
330
3D3
330
3D4
330
3D5
330
3D6
330
3D7
330
3D8
330
3D9
330
3DA
330
3DB
330
3DC
330
3DD
330
3DF
330
3E0
330
3E1
330
3E2
330
3F4
102
}
330
2D8
100
AcDbAssocAction
 90
        1
 90
        0
330
2D8
360
0
 90
        3
 90
        0
 90
        0
100
AcDbAssocVariable
 90
        2
  1
mdf_width
  1
2
  1
AcDbCalc:1.0
  1

 90
        2
290
     0
290
     0
 90
        0
  0
ACDBASSOCVARIABLE
  5
338
330
2D8
100
AcDbAssocAction
 90
        1
 90
        0
330
2D8
360
0
 90
        4
 90
        0
 90
        0
100
AcDbAssocVariable
 90
        2
  1
caja_ancho
  1
100
  1
AcDbCalc:1.0
  1

 90
      100
290
     0
290
     0
 90
        0
  0
ACDBASSOCVARIABLE
  5
355
102
{ACAD_REACTORS
330
356
102
}
330
2D8
100
AcDbAssocAction
 90
        1
 90
        0
330
2D8
360
0
 90
        6
 90
        1
 90
        0
100
AcDbAssocVariable
 90
        2
  1
d2
  1
pestaña
  1
AcDbCalc:1.0
  1

 90
       97
290
     0
290
     0
 90
        1
360
359
 90
        0
  0
ACDBASSOCVARIABLE
  5
35B
102
{ACAD_REACTORS
330
35C
102
}
330
2D8
100
AcDbAssocAction
 90
        1
 90
        0
330
2D8
360
0
 90
        7
 90
        1
 90
        0
100
AcDbAssocVariable
 90
        2
  1
d3
  1
mdf_width
  1
AcDbCalc:1.0
  1

 90
        2
290
     0
290
     0
 90
        1
360
3D7
 90
        0
  0
ACDBASSOCVARIABLE
  5
360
102
{ACAD_REACTORS
330
361
102
}
330
2D8
100
AcDbAssocAction
 90
        1
 90
        0
330
2D8
360
0
 90
        8
 90
        1
 90
        0
100
AcDbAssocVariable
 90
        2
  1
d4
  1
mdf_width
  1
AcDbCalc:1.0
  1

 90
        2
290
     0
290
     0
 90
        1
360
3D6
 90
        0
  0
ACDBASSOCVARIABLE
  5
365
102
{ACAD_REACTORS
330
366
102
}
330
2D8
100
AcDbAssocAction
 90
        1
 90
        0
330
2D8
360
0
 90
        9
 90
        1
 90
        0
100
AcDbAssocVariable
 90
        2
  1
d5
  1
mdf_width
  1
AcDbCalc:1.0
  1

 90
        2
290
     0
290
     0
 90
        1
360
3D5
 90
        0
  0
ACDBASSOCVARIABLE
  5
36A
102
{ACAD_REACTORS
330
36B
102
}
330
2D8
100
AcDbAssocAction
 90
        1
 90
        0
330
2D8
360
0
 90
       10
 90
        1
 90
        0
100
AcDbAssocVariable
 90
        2
  1
d6
  1
mdf_width
  1
AcDbCalc:1.0
  1

 90
        2
290
     0
290
     0
 90
        1
360
3D4
 90
        0
  0
ACDBASSOCVARIABLE
  5
36F
102
{ACAD_REACTORS
330
370
102
}
330
2D8
100
AcDbAssocAction
 90
        1
 90
        0
330
2D8
360
0
 90
       11
 90
        1
 90
        0
100
AcDbAssocVariable
 90
        2
  1
d7
  1
mdf_width
  1
AcDbCalc:1.0
  1

 90
        2
290
     0
290
     0
 90
        1
360
3D3
 90
        0
  0
ACDBASSOCVARIABLE
  5
374
102
{ACAD_REACTORS
330
375
102
}
330
2D8
100
AcDbAssocAction
 90
        1
 90
        0
330
2D8
360
0
 90
       12
 90
        1
 90
        0
100
AcDbAssocVariable
 90
        2
  1
d8
  1
mdf_width
  1
AcDbCalc:1.0
  1

 90
        2
290
     0
290
     0
 90
        1
360
3D2
 90
        0
  0
ACDBASSOCVARIABLE
  5
379
102
{ACAD_REACTORS
330
37A
102
}
330
2D8
100
AcDbAssocAction
 90
        1
 90
        0
330
2D8
360
0
 90
       13
 90
        1
 90
        0
100
AcDbAssocVariable
 90
        2
  1
d9
  1
mdf_width
  1
AcDbCalc:1.0
  1

 90
        2
290
     0
290
     0
 90
        1
360
3D1
 90
        0
  0
ACDBASSOCVARIABLE
  5
37E
102
{ACAD_REACTORS
330
37F
102
}
330
2D8
100
AcDbAssocAction
 90
        1
 90
        0
330
2D8
360
0
 90
       14
 90
        1
 90
        0
100
AcDbAssocVariable
 90
        2
  1
d10
  1
mdf_width
  1
AcDbCalc:1.0
  1

 90
        2
290
     0
290
     0
 90
        1
360
3E1
 90
        0
  0
ACDBASSOCVARIABLE
  5
383
102
{ACAD_REACTORS
330
384
102
}
330
2D8
100
AcDbAssocAction
 90
        1
 90
        0
330
2D8
360
0
 90
       15
 90
        1
 90
        0
100
AcDbAssocVariable
 90
        2
  1
d11
  1
mdf_width
  1
AcDbCalc:1.0
  1

 90
        2
290
     0
290
     0
 90
        1
360
3E0
 90
        0
  0
ACDBASSOCVARIABLE
  5
388
102
{ACAD_REACTORS
330
389
102
}
330
2D8
100
AcDbAssocAction
 90
        1
 90
        0
330
2D8
360
0
 90
       16
 90
        1
 90
        0
100
AcDbAssocVariable
 90
        2
  1
d12
  1
mdf_width
  1
AcDbCalc:1.0
  1

 90
        2
290
     0
290
     0
 90
        1
360
3DF
 90
        0
  0
ACDBASSOCVARIABLE
  5
39B
102
{ACAD_REACTORS
330
39C
102
}
330
2D8
100
AcDbAssocAction
 90
        1
 90
        0
330
2D8
360
0
 90
       18
 90
        1
 90
        0
100
AcDbAssocVariable
 90
        2
  1
d14
  1
mdf_width
  1
AcDbCalc:1.0
  1

 90
        2
290
     0
290
     0
 90
        1
360
3DD
 90
        0
  0
ACDBASSOCVARIABLE
  5
3A0
102
{ACAD_REACTORS
330
3A1
102
}
330
2D8
100
AcDbAssocAction
 90
        1
 90
        0
330
2D8
360
0
 90
       19
 90
        1
 90
        0
100
AcDbAssocVariable
 90
        2
  1
d15
  1
mdf_width
  1
AcDbCalc:1.0
  1

 90
        2
290
     0
290
     0
 90
        1
360
3DC
 90
        0
  0
ACDBASSOCVARIABLE
  5
3A7
102
{ACAD_REACTORS
330
3A8
102
}
330
2D8
100
AcDbAssocAction
 90
        1
 90
        0
330
2D8
360
0
 90
       20
 90
        1
 90
        0
100
AcDbAssocVariable
 90
        2
  1
d16
  1
mdf_width
  1
AcDbCalc:1.0
  1

 90
        2
290
     0
290
     0
 90
        1
360
3DB
 90
        0
  0
ACDBASSOCVARIABLE
  5
3AC
102
{ACAD_REACTORS
330
3AD
102
}
330
2D8
100
AcDbAssocAction
 90
        1
 90
        0
330
2D8
360
0
 90
       21
 90
        1
 90
        0
100
AcDbAssocVariable
 90
        2
  1
d17
  1
mdf_width
  1
AcDbCalc:1.0
  1

 90
        2
290
     0
290
     0
 90
        1
360
3DA
 90
        0
  0
ACDBASSOCVARIABLE
  5
3B7
102
{ACAD_REACTORS
330
3B8
102
}
330
2D8
100
AcDbAssocAction
 90
        1
 90
        0
330
2D8
360
0
 90
       22
 90
        1
 90
        0
100
AcDbAssocVariable
 90
        2
  1
d18
  1
mdf_width
  1
AcDbCalc:1.0
  1

 90
        2
290
     0
290
     0
 90
        1
360
3D9
 90
        0
  0
ACDBASSOCVARIABLE
  5
3C8
102
{ACAD_REACTORS
330
3C9
102
}
330
2D8
100
AcDbAssocAction
 90
        1
 90
        0
330
2D8
360
0
 90
       24
 90
        1
 90
        0
100
AcDbAssocVariable
 90
        2
  1
d1
  1
mdf_width
  1
AcDbCalc:1.0
  1

 90
        2
290
     0
290
     0
 90
        1
360
3E2
 90
        0
  0
ACDBASSOCVARIABLE
  5
3CD
102
{ACAD_REACTORS
330
3CE
102
}
330
2D8
100
AcDbAssocAction
 90
        1
 90
        0
330
2D8
360
0
 90
       25
 90
        1
 90
        0
100
AcDbAssocVariable
 90
        2
  1
d19
  1
mdf_width
  1
AcDbCalc:1.0
  1

 90
        2
290
     0
290
     0
 90
        1
360
3D8
 90
        0
  0
ACDBASSOCVARIABLE
  5
3E5
102
{ACAD_REACTORS
330
3E6
102
}
330
2D8
100
AcDbAssocAction
 90
        1
 90
        0
330
2D8
360
0
 90
       26
 90
        1
 90
        0
100
AcDbAssocVariable
 90
        2
  1
d20
  1
pestaña
  1
AcDbCalc:1.0
  1

 90
       97
290
     0
290
     0
 90
        1
360
3E9
 90
        0
  0
ACDBASSOCVARIABLE
  5
3F0
102
{ACAD_REACTORS
330
3F1
102
}
330
2D8
100
AcDbAssocAction
 90
        1
 90
        0
330
2D8
360
0
 90
       27
 90
        1
 90
        0
100
AcDbAssocVariable
 90
        2
  1
d13
  1
mdf_width
  1
AcDbCalc:1.0
  1

 90
        2
290
     0
290
     0
 90
        1
360
3F4
 90
        0
  0
ACDBASSOCVARIABLE
  5
40D
102
{ACAD_REACTORS
330
40E
102
}
330
2D8
100
AcDbAssocAction
 90
        1
 90
        0
330
2D8
360
0
 90
       28
 90
        0
 90
        0
100
AcDbAssocVariable
 90
        2
  1
d21
  1
10.3
  1
AcDbCalc:1.0
  1

 40
10.3
290
     0
290
     0
 90
        0
  0
ACDBASSOCVARIABLE
  5
412
102
{ACAD_REACTORS
330
413
102
}
330
2D8
100
AcDbAssocAction
 90
        1
 90
        0
330
2D8
360
0
 90
       29
 90
        0
 90
        0
100
AcDbAssocVariable
 90
        2
  1
d22
  1
10.3
  1
AcDbCalc:1.0
  1

 40
10.3
290
     0
290
     0
 90
        0
  0
ACDBASSOCVARIABLE
  5
417
102
{ACAD_REACTORS
330
418
102
}
330
2D8
100
AcDbAssocAction
 90
        1
 90
        0
330
2D8
360
0
 90
       30
 90
        0
 90
        0
100
AcDbAssocVariable
 90
        2
  1
d23
  1
10.3
  1
AcDbCalc:1.0
  1

 40
10.3
290
     0
290
     0
 90
        0
  0
ACDBASSOCVARIABLE
  5
41C
102
{ACAD_REACTORS
330
41D
102
}
330
2D8
100
AcDbAssocAction
 90
        1
 90
        0
330
2D8
360
0
 90
       31
 90
        0
 90
        0
100
AcDbAssocVariable
 90
        2
  1
d24
  1
10.3
  1
AcDbCalc:1.0
  1

 40
10.3
290
     0
290
     0
 90
        0
  0
ACDBASSOCVARIABLE
  5
421
102
{ACAD_REACTORS
330
422
102
}
330
2D8
100
AcDbAssocAction
 90
        1
 90
        0
330
2D8
360
0
 90
       32
 90
        0
 90
        0
100
AcDbAssocVariable
 90
        2
  1
d25
  1
10.3
  1
AcDbCalc:1.0
  1

 40
10.3
290
     0
290
     0
 90
        0
  0
ACDBASSOCVARIABLE
  5
42B
102
{ACAD_REACTORS
330
42C
102
}
330
2D8
100
AcDbAssocAction
 90
        1
 90
        0
330
2D8
360
0
 90
       33
 90
        0
 90
        0
100
AcDbAssocVariable
 90
        2
  1
d26
  1
10.3
  1
AcDbCalc:1.0
  1

 40
10.3
290
     0
290
     0
 90
        0
  0
ACDBASSOCVARIABLE
  5
430
102
{ACAD_REACTORS
330
431
102
}
330
2D8
100
AcDbAssocAction
 90
        1
 90
        0
330
2D8
360
0
 90
       34
 90
        0
 90
        0
100
AcDbAssocVariable
 90
        2
  1
d27
  1
10.3
  1
AcDbCalc:1.0
  1

 40
10.3
290
     0
290
     0
 90
        0
  0
ACDBASSOCVARIABLE
  5
435
102
{ACAD_REACTORS
330
436
102
}
330
2D8
100
AcDbAssocAction
 90
        1
 90
        0
330
2D8
360
0
 90
       35
 90
        0
 90
        0
100
AcDbAssocVariable
 90
        2
  1
d28
  1
10.3
  1
AcDbCalc:1.0
  1

 40
10.3
290
     0
290
     0
 90
        0
  0
ACDBASSOCVARIABLE
  5
43A
102
{ACAD_REACTORS
330
43B
102
}
330
2D8
100
AcDbAssocAction
 90
        1
 90
        0
330
2D8
360
0
 90
       36
 90
        0
 90
        0
100
AcDbAssocVariable
 90
        2
  1
d29
  1
10.3
  1
AcDbCalc:1.0
  1

 40
10.3
290
     0
290
     0
 90
        0
  0
ACDBASSOCVARIABLE
  5
43F
102
{ACAD_REACTORS
330
440
102
}
330
2D8
100
AcDbAssocAction
 90
        1
 90
        0
330
2D8
360
0
 90
       37
 90
        0
 90
        0
100
AcDbAssocVariable
 90
        2
  1
d30
  1
10.3
  1
AcDbCalc:1.0
  1

 40
10.3
290
     0
290
     0
 90
        0
  0
ACDBASSOCVARIABLE
  5
449
102
{ACAD_REACTORS
330
44A
102
}
330
2D8
100
AcDbAssocAction
 90
        1
 90
        0
330
2D8
360
0
 90
       38
 90
        0
 90
        0
100
AcDbAssocVariable
 90
        2
  1
d31
  1
10
  1
AcDbCalc:1.0
  1

 90
       10
290
     0
290
     0
 90
        0
  0
ACDBASSOCVARIABLE
  5
44E
102
{ACAD_REACTORS
330
44F
102
}
330
2D8
100
AcDbAssocAction
 90
        1
 90
        0
330
2D8
360
0
 90
       39
 90
        0
 90
        0
100
AcDbAssocVariable
 90
        2
  1
d32
  1
10
  1
AcDbCalc:1.0
  1

 90
       10
290
     0
290
     0
 90
        0
  0
ACDBASSOCVARIABLE
  5
454
102
{ACAD_REACTORS
330
455
102
}
330
2D8
100
AcDbAssocAction
 90
        1
 90
        0
330
2D8
360
0
 90
       40
 90
        0
 90
        0
100
AcDbAssocVariable
 90
        2
  1
d33
  1
10
  1
AcDbCalc:1.0
  1

 90
       10
290
     0
290
     0
 90
        0
  0
ACDBASSOCVARIABLE
  5
459
102
{ACAD_REACTORS
330
45A
102
}
330
2D8
100
AcDbAssocAction
 90
        1
 90
        0
330
2D8
360
0
 90
       41
 90
        0
 90
        0
100
AcDbAssocVariable
 90
        2
  1
d34
  1
10
  1
AcDbCalc:1.0
  1

 90
       10
290
     0
290
     0
 90
        0
  0
ACDBASSOCVARIABLE
  5
45E
102
{ACAD_REACTORS
330
45F
102
}
330
2D8
100
AcDbAssocAction
 90
        1
 90
        0
330
2D8
360
0
 90
       42
 90
        0
 90
        0
100
AcDbAssocVariable
 90
        2
  1
d35
  1
10.3
  1
AcDbCalc:1.0
  1

 40
10.3
290
     0
290
     0
 90
        0
  0
ACDBASSOCVARIABLE
  5
463
102
{ACAD_REACTORS
330
464
102
}
330
2D8
100
AcDbAssocAction
 90
        1
 90
        0
330
2D8
360
0
 90
       43
 90
        0
 90
        0
100
AcDbAssocVariable
 90
        2
  1
d36
  1
10
  1
AcDbCalc:1.0
  1

 90
       10
290
     0
290
     0
 90
        0
  0
ACDBASSOCVARIABLE
  5
468
102
{ACAD_REACTORS
330
469
102
}
330
2D8
100
AcDbAssocAction
 90
        1
 90
        0
330
2D8
360
0
 90
       44
 90
        0
 90
        0
100
AcDbAssocVariable
 90
        2
  1
d37
  1
10
  1
AcDbCalc:1.0
  1

 90
       10
290
     0
290
     0
 90
        0
  0
ACDBASSOCVARIABLE
  5
46D
102
{ACAD_REACTORS
330
46E
102
}
330
2D8
100
AcDbAssocAction
 90
        1
 90
        0
330
2D8
360
0
 90
       45
 90
        0
 90
        0
100
AcDbAssocVariable
 90
        2
  1
d38
  1
10
  1
AcDbCalc:1.0
  1

 90
       10
290
     0
290
     0
 90
        0
  0
ACDBASSOCVARIABLE
  5
472
102
{ACAD_REACTORS
330
473
102
}
330
2D8
100
AcDbAssocAction
 90
        1
 90
        0
330
2D8
360
0
 90
       46
 90
        0
 90
        0
100
AcDbAssocVariable
 90
        2
  1
d39
  1
10
  1
AcDbCalc:1.0
  1

 90
       10
290
     0
290
     0
 90
        0
  0
ACDBASSOCVARIABLE
  5
477
102
{ACAD_REACTORS
330
478
102
}
330
2D8
100
AcDbAssocAction
 90
        1
 90
        0
330
2D8
360
0
 90
       47
 90
        0
 90
        0
100
AcDbAssocVariable
 90
        2
  1
d40
  1
10
  1
AcDbCalc:1.0
  1

 90
       10
290
     0
290
     0
 90
        0
  0
XRECORD
  5
568
102
{ACAD_REACTORS
330
567
102
}
330
567
100
AcDbXrecord
280
     1
102
DISPLAYNAME
  1
Metric50
102
FLAGS
 90
        0
  0
XRECORD
  5
533
102
{ACAD_REACTORS
330
1F9
102
}
330
1F9
100
AcDbXrecord
280
     1
102
MATERIAL
148
0.0
149
0.0
149
0.0
 93
        0
 94
       63
282
     0
 72
     1
 77
     1
171
     1
175
     1
179
     1
273
     0
  0
XRECORD
  5
1FA
102
{ACAD_REACTORS
330
1F9
102
}
330
1F9
100
AcDbXrecord
280
     1
 70
     1
 90
429727718
  1
D62C5603-E3A1-4AEA-B7FB-FE5D8D0755AF
310
504B03040A0000080000CC70623B3DEE336E79000000790000001B0000006175746F6465736B2D64657369676E2D7061636B6167652E786D6C3C3F786D6C2076657273696F6E3D22312E302220656E636F64696E673D227574662D3822203F3E3C666F726D6174733E3C666F726D61743E687474703A2F2F736368656D612E
310
6175746F6465736B2E636F6D2F64657369676E2D7061636B6167652F323030393C2F666F726D61743E3C2F666F726D6174733E504B0304140006080800CC70623BD486FD9CA0000000F4000000130000005B436F6E74656E745F54797065735D2E786D6C7D8EC10E82300C865F65E91D8A1E8C310C0EEA1BF002731658846E
310
D98AC1B77784ABF1D8FE5FBFBF75BBCE937A534CCEB38643598122B6FEE978D0B0485F9C41B54DDD7D022595594E1A469170414C76A4D9A4D207E29CF43ECE46F218070CC6BECC4078ACAA135ACF422C856C0E68EA1BF5669944DDD7BCDE7B1F8E415D77AECB980613C2E4AC91FC167A2B244592486606FC29C8FD7F045B9A
310
EF7053A7E60B504B0304140006080800CC70623B853B8169EB0000007C01000008000000636F72652E786D6C8D90416EC3201045AF62CDB6C206821CC7C244919D9CA01740401C94182C03558F5F9C3852BBEB6A467FFE9B197D7EFC9E1EC5975982F5AE035262288C535E5B377690E21535501C055FBC8FBF6C503839990E
310
5619041F179FE64D52DE45E362569DD7661365082642A11EB9E920A89B99642953CC8E702F67A9EE7234257977194EC9EAE275C4EABCCF5EAD5940D4AC6F0E35A568B8F43562CD7046CD199FD07E60174276A7BE677B5EADB0E0D14EEFFB6A31321A0D82627C4084204C3F096B71DD52F6819B16635EADF63F509AF53FA164
310
5DDCD1EDDD17164090FCC8732078B56691CB33A85CD7DCC40F504B0304140006080800CC70623B55019EA25F0000007C00000007000000636E782E786D6C4DCB3B0E80201045D1AD90E915ED2CF8AC45050C11660C8261F98AB1B07AC9C97D42D718D865D3E909258CFD00CCE24AC6E326A164D74DC0B4128928FF32603847
310
2BA13128B1252AC747C6BAB984FC68F0B87FE8960A5C09FE86CFB69FBA01504B0304140006080800CC70623BDBABAAF470010000D40300000C0000006662782F636F72652E786D6CC553D16E823014FD95A6AF4B694182CC941A83FA05FB810A9511A125A5257EFE2E82712ECEB8A7F100CD39F7F69E734AF9FADC366850B6
310
AF8DCE7018308C942E4C59EB2AC3DE1D498AD15A706B8CFB56869196ADCAF00863C12B6B7C374385D14E6907A836A59A41D9F7CA615434B0C8705F7CAA5606D23BA8E84F41278B93AC54100640439DE0BDB320004D43C63716C7C399D30917DCFBBA9CD9BA8469F5B156168B24CED3F7248AC8769F27244EB73B92EED8862C
310
B7F13E0C179B3C8F979C8ECD82BBBABDAA2BAC924E9558448CBD9330242CFA08E3154B5651FCC6D215639C8EE5774DBE2B5F6CF2B5768B68963BB5F5588420E442FC700B1139D4CB01F450C1E918227C2E09DF070D8140C84E1E9AAB8F1340832A9CB13130A5F1376A908D57309505ECF2A0DF179C4E9D30F5B239B87E3823
310
7A79C6F31DE1A8A5AEC08474B03C7837EAE4938639B44E5932B833D2C6B6B279CDC613877FA26EE21F4A2A4C63EC7F29A2F301D1F9F7A0E37D145F504B0304140006080800CC70623B9C113CC27E0000009D0000000B0000006662782F636E782E786D6C4DCCDF0A83201C86E15B91DFB94BFB330DD428C8FB886521330DA7
310
6397BF1A1DECE883878F57749FCDA1B7892F1BBC047A23808C7F84D9FA55424E0BE6803A256208E9EF06C84F9B91703228B1C690F78B66B34CD9A5439DF5CF0BFBF65E35BCA1B8D6A5C6F540381E886698B5741C695F9503EBA150A2F8958E3DC3EA0B504B0304140006080800CC70623B7DF2F77C2A010000120200003100
310
00006662782F41393633353835312D344632462D344230382D423046372D3739314545314133324237412F636F72652E786D6C8D51DB8EC22014FC15C2939B0D2DB4B45643319AE817EC0F6041255A68B86CFCFC856D4D76DF7CE190393373060EDB3DC707F856CE6B6B7A480A0C81328395DA5C7B18C3057510EC3873D686
310
3F34088C18550F330C39BB3A1BA7051AAC09CA84841A2BD5020AEF55806078A44B0FFD7053A328440C89E1EFC52486BBB8AA8214A99D789CF9E05200300FC927E4FB4D5B375D43103D5527440FB843077C5AA3F5861C8F645F5787F59E95B390B318B55CE45AA638FAA2957BD7248B390B7A7CC51F9C124149C82B8C378810
310
84AB2F42B7B8DD56F413775B8C5999E9FF4471926F8AA236A1AE96B8B3CC434E5839373893369E1FAF30EA395917409EB7F26AF8801C171837A4A6AC9C89E9F9C9B1A58BA30FD6A5EF5DDDCF894B9AD9B6A59C957943A9FCAE2FD5BC4DFE03504B0304140006080800CC70623BAD7543B64E01000033030000300000006662
310
782F41393633353835312D344632462D344230382D423046372D3739314545314133324237412F636E782E786D6CD593CD6EC32010845F0571AD6CE3D48AD20813A9873E410FBD12D82434182C7EAAE6EDBB2424CD25871E7B41D6EC30B3FA84F9E67BB2E40B4234DE8DB46F1925E094D7C6ED479AD3AE5951B2113C789FEE
310
6C943839C1488B4C05DF079FE72A69D8C96C13AAD6B8631503449F83828872B949AC57D26200B826A308D316B4064D6E46FCDA41C05550DC9E483A00797BFD207EFB092A45DE9514C1BBD22178396BD39D891265658C238DEA00936C654E5E433CB65A26D9F6EDB5EBC14EBF49A45CB856E66048291F6939A9A81BB5C89177
310
38143CA680F4AA299D66A042CEB3354A2684DC9D8D178FE0D9B8B41CAAD720F880EE7EF93C0C18769E099ECC04D5A102C8049A8A05632F4DDF376CF1DE0F6BB65C2F8627B65A33C6BB62177CEBBDAD973006829F89F22E814B54F4BC2BE347F8AA8F681390B50FA73F804400B5F542E796F19FF974E7F78DB802FE05E20750
310
4B0304140006080800CC70623BE75B7789680500003C100000340000006662782F41393633353835312D344632462D344230382D423046372D3739314545314133324237412F6F626A656374732E786D6CAD575B8F9B3818FD2B887D06C22499CB8AA1CA655245D5B455A356FB305264C061D8018C6C3393D95FBFC7600890
310
A4CD5EF210B0B1BFEBF98E3F7B1FF6596ABC522E1296DF9BAE3D320D9A872C4AF2F8DE2CE5CEBA358D0FBEC719939D65A691938CDE9B6ADAF4BD98B3B2D05311DD91329583D9D5FC0F438434A7A611A644887B5384CF34233629258BA878B12322891DEFF6B66BD70BFB62634E8AE781D082709A4B588AF91C528CDA28B73F
310
1C998EEF39EABBEFA97FBD6A7C7E9553F9D3D79FE442923C3C523610337627CB87ABE99D359D4CC6D6E4FACAB5E6ABF9D2726FC6A3C5F56271377BB88362213924694B38DD99FE47C48627A1E7D49F5A8BB5E1A74C0A599ED3B0F21F1E56366B89112D681E218F0915D0D6F17AD41FBA2A369DCF6335D62ABBD39779D5DDD1
310
11D4D8DE3CBB96B2E04FB8202E41051754A1AA8E8F76B4C6DFE810B580B1547F4B84911149794252234D024EF8BBE963A95AE27B3D310A9D5C215C7960FAEE415ED75694C6AFB17BCACA5D99A60A9AA65F217B0BFC53292ACB92BF283FAD0D3621576592CB5BED907C2FA8E9DF794E35E97BEA31BED21FEB401ABB94C44839
310
DCACBF0E1C5DA8DA5B2F4DFFD32AD86F543D9E565E7056502E157C00AD2671CD534549AB752FCA9CDA00677A313F04E51B22FF19E57B300579E3C97EB29F682D92935CEC18CF901B7B54FD8C51F362B56FC72FE0B3C1EAE335EDCCBF5AEC39ADB17DC238973F804BA5E6F6BFE7AF1FB32E523BE9F3BD571418E3631DCA4D48
310
5250CF639223210A9446CA30052EDF057BD35F8329C1ECD84552BF0DC8D18BE7BCE23BFE6BD960AB4A7DE79923A103BEBD80F911CBAA2C60DB19B01CF164A5583B772EE6D3FFA56666CBCDA74DC97724A48F9A58967497E489C4D979006FD7A05E227A1EBDD0F737C623387A9C844D3709995625106D157315F8B8392CD4E0
310
A0B9A720C4BE9829CEF37EA1E13111214D53925356365ADA634861B52519DD27A00AEB808EAF0628E6F435519D446F45CF2C9CF5214F0A15B2F6D06B79DA3EE3CBF7F56780D2F4E7EF73A0F5E5B02A38D07DC852C6B7C1FBB6664213E0C39E3EBA7FF4E1AD23EA2829407C85E586727488B751B2DB9502BC7B228A3FD68B6E
310
A65A22397E690AA8D158D7E404EC8CDA235CC3B7D1898680131CEC2CDF2638C65196279577750F15884AEE19F94199155B92B13297978469D4F8D358DF0AEF7631E28DC8F0D9F437D5D39A83B2231A1D52D543813A824EF8D44BCFF2FA6A31BD1E8DAD87F1CCB526B3879935BF59CDADD5C37479BB1CDD4CA7B3556B516589
310
EF352754B706114D9C885EC9131DE6EFEB43D99AFE2391C2F958179413D7CFEF6B1B6DB1E7600F00DE6E5C67454A339A4BA2E0FBA85ED26F045D454F463DBFCE484C2F90F2E5E3666003662ED8F755951A7D1BECD5B30B550B2785C8E7320B7292A4838DDA71BBC863ED7613CAF659337A3354231D4FF4A182A54904C2898C
310
98B28C4AD0CE056CCF332A80986E571EE9DBC305BB5FEB7E509220A58D25CF042D712A806AC0AD0C657FDEF80D2D9CEAA2EE4D1C76F60BFE74219A06527D6F82DF6412526107381E55E353090704D085B52408A8913C4ED159D79BDA71BB4BC506F4831350EB6F975CD22D69BF7AC49B91A2C0A9DDA3D5CA36AD20FC478E37
310
E61844E2352865EBCB61A275A65283CAAA9DD27703B4102F5AF51EF5F573B75CBB5AD38BC845F7A49F82A0966A49C2E3EA5EA0ECD326CD965F1DB402C6FA8B51A4658C5C5E2EC9E214602E55810345408596591009A82E7E7FFACA19EEA299B14A0081A705CB3296EBC14CDF658DCD336EA6D1136881AAEB87B81AB9EE53D5
310
F5EB8BC8362082DA24122F98680A4E7930C01A0079749CEA14382A0783E5EBA5A10F8C098456A03D6A4AEB6BB881E2513747552A5DB22C7EDAF83BD5528081A365F7FF06504B0304140006080000CC70623B000000000000000000000000350000006662782F41393633353835312D344632462D344230382D423046372D37
310
39314545314133324237412F76657274696365732E62696E504B0304140006080800CC70623BF270F1330600000004000000360000006662782F41393633353835312D344632462D344230382D423046372D3739314545314133324237412F747269616E676C65732E62696E636660600000504B0304140006080000CC7062
310
3B000000000000000000000000370000006662782F41393633353835312D344632462D344230382D423046372D3739314545314133324237412F617474726962757465732E62696E504B0304140006080800CC70623B08DA0BD19000000041010000360000006662782F41393633353835312D344632462D344230382D4230
310
46372D3739314545314133324237412F6469726563746F72792E786D6C858F410AC3201045AF22B36F53E9A60B35CBEEBAE80D244E44489C6234F4F835464A48035D0DF398FF9F8AF63D0E6CC63039F212F8F9020C7D47C6792B21C5FE7403D62A1188E2E60C98D7234A5830286103A55745067B9D86B8A3CF9C7F90C11DE6
310
07FB144396D7B6A82D282E9A152AD114D5EF2CB866EEE831B8EEA07A7BB5A8D7D61A2BAAEB7FD5F70921FF497D00504B0304140006080800CC70623BEDD1DC58FD000000A00100003B0000006662782F41393633353835312D344632462D344230382D423046372D3739314545314133324237412F7265736F75726365732F
310
636F72652E786D6C8D504B6E833010BD0A9A6D65B00922041947112427E8052C33A156828DFCA97AFC9A40A576D7CDCCE87D344F8F9FBFE667F689CE6B6B3A6039850C8DB2A336530731DC4903D95970676DF82583CCC8193B5861107C72362E3BA4AC096842428D1D7107A5F7182053CF7474E0D507CE32973124857FE48B
310
540F3961CEF244279DE03EB81420DB9EAC1384436FA353E879B1B182C7A8C75DA3C7F453DF353A1075D537A7BA6464B8F535A99AE14A9A2BBD90E350DD183B5CFABE3AF262350B1EF4FC9351399401471025A527C218A1E53BAB5A5AB765F5469B96525EACF23FA6B88CFF34456DC2A1DCE36E360F82A5202F42F062ED2BAD
310
579969AFDD8A6F504B010214000A0000080000CC70623B3DEE336E79000000790000001B00000000000000000000000000000000006175746F6465736B2D64657369676E2D7061636B6167652E786D6C504B01021400140006080800CC70623BD486FD9CA0000000F40000001300000000000000000000000000B20000005B
310
436F6E74656E745F54797065735D2E786D6C504B01021400140006080800CC70623B853B8169EB0000007C010000080000000000000000000000000083010000636F72652E786D6C504B01021400140006080800CC70623B55019EA25F0000007C000000070000000000000000000000000094020000636E782E786D6C504B
310
01021400140006080800CC70623BDBABAAF470010000D40300000C00000000000000000000000000180300006662782F636F72652E786D6C504B01021400140006080800CC70623B9C113CC27E0000009D0000000B00000000000000000000000000B20400006662782F636E782E786D6C504B01021400140006080800CC70
310
623B7DF2F77C2A010000120200003100000000000000000000000000590500006662782F41393633353835312D344632462D344230382D423046372D3739314545314133324237412F636F72652E786D6C504B01021400140006080800CC70623BAD7543B64E010000330300003000000000000000000000000000D2060000
310
6662782F41393633353835312D344632462D344230382D423046372D3739314545314133324237412F636E782E786D6C504B01021400140006080800CC70623BE75B7789680500003C10000034000000000000000000000000006E0800006662782F41393633353835312D344632462D344230382D423046372D3739314545
310
314133324237412F6F626A656374732E786D6C504B01021400140006080000CC70623B0000000000000000000000003500000000000000000000000000280E00006662782F41393633353835312D344632462D344230382D423046372D3739314545314133324237412F76657274696365732E62696E504B01021400140006
310
080800CC70623BF270F133060000000400000036000000000000000000000000007B0E00006662782F41393633353835312D344632462D344230382D423046372D3739314545314133324237412F747269616E676C65732E62696E504B01021400140006080000CC70623B0000000000000000000000003700000000000000
310
000000000000D50E00006662782F41393633353835312D344632462D344230382D423046372D3739314545314133324237412F617474726962757465732E62696E504B01021400140006080800CC70623B08DA0BD1900000004101000036000000000000000000000000002A0F00006662782F41393633353835312D344632
310
462D344230382D423046372D3739314545314133324237412F6469726563746F72792E786D6C504B01021400140006080800CC70623BEDD1DC58FD000000A00100003B000000000000000000000000000E1000006662782F41393633353835312D344632462D344230382D423046372D3739314545314133324237412F7265
310
736F75726365732F636F72652E786D6C504B0506000000000E000E0080040000641100000000
  0
XRECORD
  5
532
102
{ACAD_REACTORS
330
1F7
102
}
330
1F7
100
AcDbXrecord
280
     1
102
MATERIAL
148
0.0
149
0.0
149
0.0
 93
        0
 94
       63
282
     0
 72
     1
 77
     1
171
     1
175
     1
179
     1
273
     0
  0
XRECORD
  5
1F8
102
{ACAD_REACTORS
330
1F7
102
}
330
1F7
100
AcDbXrecord
280
     1
 70
     1
 90
429727718
  1
30362254-06B7-45E0-A893-8CFA70E3D6BC
310
504B03040A0000080000CC70623B3DEE336E79000000790000001B0000006175746F6465736B2D64657369676E2D7061636B6167652E786D6C3C3F786D6C2076657273696F6E3D22312E302220656E636F64696E673D227574662D3822203F3E3C666F726D6174733E3C666F726D61743E687474703A2F2F736368656D612E
310
6175746F6465736B2E636F6D2F64657369676E2D7061636B6167652F323030393C2F666F726D61743E3C2F666F726D6174733E504B0304140006080800CC70623BD486FD9CA0000000F4000000130000005B436F6E74656E745F54797065735D2E786D6C7D8EC10E82300C865F65E91D8A1E8C310C0EEA1BF002731658846E
310
D98AC1B77784ABF1D8FE5FBFBF75BBCE937A534CCEB38643598122B6FEE978D0B0485F9C41B54DDD7D022595594E1A469170414C76A4D9A4D207E29CF43ECE46F218070CC6BECC4078ACAA135ACF422C856C0E68EA1BF5669944DDD7BCDE7B1F8E415D77AECB980613C2E4AC91FC167A2B244592486606FC29C8FD7F045B9A
310
EF7053A7E60B504B0304140006080800CC70623B1EC5D7A3EB0000007C01000008000000636F72652E786D6C8D90416EC3201045AF82665B6103C6756C6122AB4D4ED00B204C5C94182C03558F5F9C3852BBEB6A467FFE9B197D71FC9E6FE8CBACC17AD7032D0820E3B41FAD9B7A48F1820F808E52ACDEC75F36404ECDA687
310
4D0629A6D5A76597B477D1B89855E747B38B2A041301E95B6E7A08FAD3CCAA50296647B8168BD2573599823EBB0CA76447F43862C7BCCF5EAC59410E4DDD9C7973C2755553CCCFA4C603E3040F1565ED3B1FDE4E432BCA0D9622DAF9795FAF464533826484B498524CD807E51D79ED187F21878E10516EF63F505AC67F42C9
310
BA58B1FDDD071640D2FCC87D2045B96591CB3DA85CB7DCE40F504B0304140006080800CC70623B55019EA25F0000007C00000007000000636E782E786D6C4DCB3B0E80201045D1AD90E915ED2CF8AC45050C11660C8261F98AB1B07AC9C97D42D718D865D3E909258CFD00CCE24AC6E326A164D74DC0B4128928FF32603847
310
2BA13128B1252AC747C6BAB984FC68F0B87FE8960A5C09FE86CFB69FBA01504B0304140006080800CC70623B8C9102E971010000D40300000C0000006662782F636F72652E786D6CC5535B6E833010BC8AE5DF0A6C08340F1947A84D4ED00B38C6A128602363A31CBFCB234A53A551FA553EC09AD9F5CE8C31DB9E9B1AF5CA
310
7695D1198E428A91D2D214952E33ECDD315861B4E5CC1AE3BE9561A445A3323CC098B3D21ADFCE9034DA29ED00D5A6503328BA4E398C640D8B0C77F253352214DE4145770A5B214FA2546114020D759C75CE8200340D19DE981F0F6746269C33EFAB6266AB02A655C74A59CCF365BADC27CB5D902ED22848F6340DF238A141
310
BE88E2F57B92BFEDF23523433367AE6A2EEAA455C2A902F398D2751045018D3FA264435F3771F242571B4A1919CA6F9A7C5B3CD9E42BED16F12C776AEB308F40C848FC700B1139D4891EF410CEC810227CC6846F8386402064270EF5C5C709A05E49676C024C61FC95EA45ED154CA5211D1FF4FB8291A913A68E9B83EBBB33
310
E2A7673CDE118E5AE8124C0807CB8377834E366998436B950D7A7746DAD846D4CFD978E0F04FD455FC5D49D2D4C6FE9722321F10997F0F32DC47FE05504B0304140006080800CC70623BFFEA85907E0000009D0000000B0000006662782F636E782E786D6C4DCCD10A83201886E15B91FFDC95D95A811AB6F23E625948A6C3
310
E9D8E5AF46073BFAE0E1E365ED67B3E8ADC3CB78C7815C7240DA3DFC64DCC221C519D7805AC182F7F1EF06C88D9BE6703008B6049F9E274D7A1E938DBB5AE3D6131B2589BA0D3D965551E0B2EA732C9B9A624AAEB41E3A557677029960D9AFB4EF11165F504B0304140006080800CC70623B4FEEA4082C0100001202000031
310
0000006662782F39464131463745442D413632322D343644302D413938332D3331353338454246344243312F636F72652E786D6C8D515B6EC32010BC0AE2AB55850DD871ED0813254D72825EC00192A2C460F1A872FC42ED48ED5F7E00CDCECCCEB26C731F6FE05B39AFADE921293004CA082BB5B9F43086336A21D870E6AC
310
0D7F68109861543DCC30E4ECE26C9C164858139409093556AA051CBC570102714B8F1E7AF1A5C6A11862480C7F2DA6415C878B2A4891CA89C7990F2E050073937C42DE1DB7E4F87ED8A36D4329AA9B3D46DBAEAD504556557BD81DEBDD0761E52CE42C462D17B996298E3E6BE59E35C962CE821E1FF18553435012728A7187
310
0841987E927A8D9B35ADDF70BBC6989599FE4F1427F9A4286A132ABAC49D651EF234CD5CE04CDA78BA3DC2A8FB645D00B9DF8B57E215725C60BCA2A463E54C4CE327C7A65E1C7DB02E7DEFCBF594B864C5CA6CDBD49C957943E9FA5D5FBAF336F90F504B0304140006080800CC70623BAD7543B64E01000033030000300000
310
006662782F39464131463745442D413632322D343644302D413938332D3331353338454246344243312F636E782E786D6CD593CD6EC32010845F0571AD6CE3D48AD20813A9873E410FBD12D82434182C7EAAE6EDBB2424CD25871E7B41D6EC30B3FA84F9E67BB2E40B4234DE8DB46F1925E094D7C6ED479AD3AE5951B2113C
310
789FEE6C943839C1488B4C05DF079FE72A69D8C96C13AAD6B8631503449F83828872B949AC57D26200B826A308D316B4064D6E46FCDA41C05550DC9E483A00797BFD207EFB092A45DE9514C1BBD22178396BD39D891265658C238DEA00936C654E5E433CB65A26D9F6EDB5EBC14EBF49A45CB856E66048291F6939A9A81BB5
310
C8917738143CA680F4AA299D66A042CEB3354A2684DC9D8D178FE0D9B8B41CAAD720F880EE7EF93C0C18769E099ECC04D5A102C8049A8A05632F4DDF376CF1DE0F6BB65C2F8627B65A33C6BB62177CEBBDAD973006829F89F22E814B54F4BC2BE347F8AA8F681390B50FA73F804400B5F542E796F19FF974E7F78DB802FE05
310
E207504B0304140006080800CC70623B16AB87BA640500003C100000340000006662782F39464131463745442D413632322D343644302D413938332D3331353338454246344243312F6F626A656374732E786D6CAD575B6FA33818FD2B887DE6924B3BED8A326A92B68A663B534DD4D13E548A0C38942D60649B369D5FBFC7
310
600890A493BDE42160637FD7F31D7FF63E6FB3D478A55C242CBF3247B66B1A340F5994E4F19559CA8D75611A9F7D8F33263BCB4C232719BD32D5B4E97B316765A1A722BA21652A07B3B7B33F0D11D29C9A46981221AE4C113ED38CD8A4942CA2E2C58E882476BCD9DA23BB5ED8171B73523C0F841684D35CC252CCE79062D4
310
468DFA43D7747CCF51DF7D4FFDEB5593E3AB9CCA9FBEFE241792E4E19EB28198C968BAB8199F5D5A67D3E9C49A9E8F47D6EC76B6B0469F26EEFC7C3EBFBCBEB98462213924694B38DD98FE1D62C393D073EA4FADC5DAF04326852CCF6958F90F0F2B9BB5C48816348F90C7840A68EB78EDF68723159BCEE7891A6B95DDE9D3
310
BCEAEEE8086A6C6F9E5D4B59F0175C10A7A0820BAA5055C7473B5AE3CFDD452D602CD5DF12616444529E90D448938013FE6EFA58AA96F85E4F8C42275708571E98FE6827AF6B2B4AE3D7D83D64E5A64C53054DD3AF90BD06FEA9149565C94FCA0F6B834DC85599E4F2423B24DF0B6AFA979E534DFA9E7A4CC6FA631D486393
310
921829879BF5D781A373557BCB85E97FB90DB62B558F8795179C15944B051F40AB495CF35451D26A4727654E6D8033BD98EF82F21D91FF8AF2DD9982BCF1643BDD4EB516C9492E368C67C88DED563FC36D5EACF66DFF057C3658BDBFA69DF9578B3DA735B64F18C7F20770A9D45CFCF7FCF563D6456A277DBEF78A02637CA2
310
43B90A490AEAB94F72244481D24819A6C0E59B606BFA4B3025981DBB48EAB701D97BF19C577CC77F2D1B6C55A9EF3C732474C0B727303F625995056C3B02963D9EAC146BE78EC5FCEC7FA999EBC5EACBAAE41B12D27B4D2C0BBA49F244E2ECDC81B76B502F113D8F5EE8FB1BE3111CDD4FC2AA9B844CAB1288B68AB90A7CDC
310
1C166AB0D3DC5310625FCC14E779BFD0709F8890A629C9292B1B2DED31A4B0DA928CEE135085754027E3018A397D4D5427D15BD1330B677DC8934285AC3DF45A9EB68FF8F2B8FC0A509AFEECFD0FF2DE25CC6047F7214B195F07EFEB9A094D800F7BFAE8FED187B78EA8A3A400F115961BCAD1215E47C966530AF0EE8128FE
310
58CEBB996A8964FFA529A046635D9353B0336A8F700DDF46271A024E70B0B37C9DE01847591E54DED53D54202AB947E4076556AC49C6CA5C9E1226B7F1A7B1BE15DEED62C41B91E1B3E9AFAAA735036547343A925075041DF0A9979E893B391F8FCFA6967B3EFB644DCF6E5CEBFAE272625DCC6FAF3FB93793C5F90CE1EF57
310
407342756B10D1C489E8953CD1617E5CEECAD6F4EF8914CE5D5D504E5C3F1F9736DA62CFC11E00BCDDB8CC8A9466349744C1F75EBDA4DF09BA8A9E8C7A7E9991989E20E5DBDD6A6003664ED8F7A04A8DBE0DF6EAD9B9AA858342E47399053949D2C146EDB85DE4B176BB0965FBAC19BD19AA918E27FA50C1D22402E144464C
310
59462568E704B6E71915404CB72B8FF4EDE184DDAF753F284990D2C6926782963815403548A70C657FDEF80D2D9CEAA2AE4C1C76F60BFE74219A06527D6582DF6412526107381E55E353090704D085B52408D0933C4ED159D79BDA71BB4BC506F4831350EB6F979CD22D69BF7AC49B91A2C0A9DDA3D5CA36AD20FC478E37E6
310
1844E2352865EBCB6EA275A652E3836BE04EFB400BF1A2556F515F1FBB35B2AB35BD889C744FFA1004B5544B121E57F70215746DD2F5E2C1412B602CBF19455AC6C8E5E9922C4E01E65215385004546899059180EAFCF7A707CE7017CD8CDB0410789AB32C63B91E5CEBBBACB17AC6CD347A022D5075FD106377347AAABA7E
310
7D11590744509B44E205134DC1290F06580320F78E537D3D73540E06CB970B431F185308AD40BBD794D6D77003C5A36E8EAA54BA64597CD8F83BD552A080A365F7FF06504B0304140006080000CC70623B000000000000000000000000350000006662782F39464131463745442D413632322D343644302D413938332D3331
310
353338454246344243312F76657274696365732E62696E504B0304140006080800CC70623BF270F1330600000004000000360000006662782F39464131463745442D413632322D343644302D413938332D3331353338454246344243312F747269616E676C65732E62696E636660600000504B0304140006080000CC70623B
310
000000000000000000000000370000006662782F39464131463745442D413632322D343644302D413938332D3331353338454246344243312F617474726962757465732E62696E504B0304140006080800CC70623B08DA0BD19000000041010000360000006662782F39464131463745442D413632322D343644302D413938
310
332D3331353338454246344243312F6469726563746F72792E786D6C858F410AC3201045AF22B36F53E9A60B35CBEEBAE80D244E44489C6234F4F835464A48035D0DF398FF9F8AF63D0E6CC63039F212F8F9020C7D47C6792B21C5FE7403D62A1188E2E60C98D7234A5830286103A55745067B9D86B8A3CF9C7F90C11DE607
310
FB144396D7B6A82D282E9A152AD114D5EF2CB866EEE831B8EEA07A7BB5A8D7D61A2BAAEB7FD5F70921FF497D00504B0304140006080800CC70623B0D6EF93BFE000000A00100003B0000006662782F39464131463745442D413632322D343644302D413938332D3331353338454246344243312F7265736F75726365732F63
310
6F72652E786D6C8D50596E833010BD0A9ADFCA60B334011947A8694ED00B586642AC041B79A97AFC9A40A5F6AF3F33A3B7689E1E3F7DCD8FEC139DD7D6F4C0720A191A65476DA61E62B892236427C19DB5E1970C322367EC618541F0C9D9B8EC90B226A009093576C41D94DE63804C3DD2D18357379C652E63480A7FCF17A9
310
EE72C29CE5894E3AC17D702940B63D59270887DE46A7D0F36263058F518FBB468FE9A7BE6A7420864373B8D4873369AA8691FA421B3294352543C5CAF65C0F6FEF43CB8BD52C78D0F34F46E550061C419494B6843142CB0F5677F4B52BEB177AEC28E5C52AFF638ACBF84F53D42654E51E77B379102C05791282176B5F693D
310
CB4C7BED567C03504B010214000A0000080000CC70623B3DEE336E79000000790000001B00000000000000000000000000000000006175746F6465736B2D64657369676E2D7061636B6167652E786D6C504B01021400140006080800CC70623BD486FD9CA0000000F40000001300000000000000000000000000B20000005B
310
436F6E74656E745F54797065735D2E786D6C504B01021400140006080800CC70623B1EC5D7A3EB0000007C010000080000000000000000000000000083010000636F72652E786D6C504B01021400140006080800CC70623B55019EA25F0000007C000000070000000000000000000000000094020000636E782E786D6C504B
310
01021400140006080800CC70623B8C9102E971010000D40300000C00000000000000000000000000180300006662782F636F72652E786D6C504B01021400140006080800CC70623BFFEA85907E0000009D0000000B00000000000000000000000000B30400006662782F636E782E786D6C504B01021400140006080800CC70
310
623B4FEEA4082C0100001202000031000000000000000000000000005A0500006662782F39464131463745442D413632322D343644302D413938332D3331353338454246344243312F636F72652E786D6C504B01021400140006080800CC70623BAD7543B64E010000330300003000000000000000000000000000D5060000
310
6662782F39464131463745442D413632322D343644302D413938332D3331353338454246344243312F636E782E786D6C504B01021400140006080800CC70623B16AB87BA640500003C1000003400000000000000000000000000710800006662782F39464131463745442D413632322D343644302D413938332D3331353338
310
454246344243312F6F626A656374732E786D6C504B01021400140006080000CC70623B0000000000000000000000003500000000000000000000000000270E00006662782F39464131463745442D413632322D343644302D413938332D3331353338454246344243312F76657274696365732E62696E504B01021400140006
310
080800CC70623BF270F133060000000400000036000000000000000000000000007A0E00006662782F39464131463745442D413632322D343644302D413938332D3331353338454246344243312F747269616E676C65732E62696E504B01021400140006080000CC70623B0000000000000000000000003700000000000000
310
000000000000D40E00006662782F39464131463745442D413632322D343644302D413938332D3331353338454246344243312F617474726962757465732E62696E504B01021400140006080800CC70623B08DA0BD190000000410100003600000000000000000000000000290F00006662782F39464131463745442D413632
310
322D343644302D413938332D3331353338454246344243312F6469726563746F72792E786D6C504B01021400140006080800CC70623B0D6EF93BFE000000A00100003B000000000000000000000000000D1000006662782F39464131463745442D413632322D343644302D413938332D3331353338454246344243312F7265
310
736F75726365732F636F72652E786D6C504B0506000000000E000E0080040000641100000000
  0
XRECORD
  5
534
102
{ACAD_REACTORS
330
173
102
}
330
173
100
AcDbXrecord
280
     1
102
MATERIAL
148
0.0
149
0.0
149
0.0
 93
        0
 94
       63
282
     0
 72
     1
 77
     1
171
     1
175
     1
179
     1
273
     0
  0
XRECORD
  5
175
102
{ACAD_REACTORS
330
173
102
}
330
173
100
AcDbXrecord
280
     1
270
     1
271
     1
  0
XRECORD
  5
174
102
{ACAD_REACTORS
330
173
102
}
330
173
100
AcDbXrecord
280
     1
270
     1
271
     1
  0
XRECORD
  5
1FB
102
{ACAD_REACTORS
330
173
102
}
330
173
100
AcDbXrecord
280
     1
 70
     0
 90
1673772943
  1
ECE7A1D2-D628-4531-984C-D00F80459256
310
504B03040A0000080000CC70623B3DEE336E79000000790000001B0000006175746F6465736B2D64657369676E2D7061636B6167652E786D6C3C3F786D6C2076657273696F6E3D22312E302220656E636F64696E673D227574662D3822203F3E3C666F726D6174733E3C666F726D61743E687474703A2F2F736368656D612E
310
6175746F6465736B2E636F6D2F64657369676E2D7061636B6167652F323030393C2F666F726D61743E3C2F666F726D6174733E504B0304140006080800CC70623BD486FD9CA0000000F4000000130000005B436F6E74656E745F54797065735D2E786D6C7D8EC10E82300C865F65E91D8A1E8C310C0EEA1BF002731658846E
310
D98AC1B77784ABF1D8FE5FBFBF75BBCE937A534CCEB38643598122B6FEE978D0B0485F9C41B54DDD7D022595594E1A469170414C76A4D9A4D207E29CF43ECE46F218070CC6BECC4078ACAA135ACF422C856C0E68EA1BF5669944DDD7BCDE7B1F8E415D77AECB980613C2E4AC91FC167A2B244592486606FC29C8FD7F045B9A
310
EF7053A7E60B504B0304140006080800CC70623BD9DDAED0EC0000007C01000008000000636F72652E786D6C8D90416EC3201045AF82665B61836D9CD8C2444DD39CA01740405C94182C03558F5F9C3852BBEB6A467FFE9B197D7EF89E6EE8CB2CC17A37002D0820E394D7D68D03A478C17B4007C117EFE32F1B20272733C0
310
2A83E0E3E2D3BC49CABB685CCCAAF3DA6CA20CC14440EA969B0182FA34932C648AD911AEC52CD5558EA6A0CF2EC329598D1E47ACCEFBECC59A050463A7EA5833865FEBDD0E37353BE3EE8DBDE3F6786A48D375FBF6CC78B9C282473B3DEFABC5C86834888A900E538A49F5419B9EB47DD5BC907D4F082F57FB1F28CDFA9F50
310
B22ED6D5F6EE030B20687EE43E10BC5CB3C8E51E54AE6B6EE207504B0304140006080800CC70623B55019EA25F0000007C00000007000000636E782E786D6C4DCB3B0E80201045D1AD90E915ED2CF8AC45050C11660C8261F98AB1B07AC9C97D42D718D865D3E909258CFD00CCE24AC6E326A164D74DC0B4128928FF326038
310
472BA13128B1252AC747C6BAB984FC68F0B87FE8960A5C09FE86CFB69FBA01504B0304140006080800CC70623BA24EB22D72010000D40300000C0000006662782F636F72652E786D6CC5535B6E833010BC8AE5DF0A6C5E49888CA3A6694ED00B38E05014B091B1518EDFE511A5A9D228FD2A1F60CDEC7A67C6986DCE4D8D7A
310
69BA4AAB0C073EC548AA5C17952A33ECECD15B61B4E1CC686DBF9561A44423333CC098B3D268D7CE50AE9595CA02AA74216750749DB418E5352C32DCE59FB211BE70162ABA93DF8AFC244AE9073ED050C759670D0840D390E18DF9F1706664C23973AE2A66B62A605A75ACA4C13C4976E1364A12EF355A2EBD384AF65EFA96
310
BC7B8BED2EA6719AAE16FB8491A199335B351775B991C2CA02F390D2D40B028F861F41BCA68B7518BFD0D59A524686F29B26D7164F36B94AD9289CE54E6D1DE6010819891F6E21228B3AD1831EC219194284CF98F06DD01008846CC5A1BEF83801D4CBDC6A1303536877A57A513B0953A94FC707FDBE6064EA84A9E3E6E0FA
310
EE8CF0E9198F7784A316AA0413C2C2F2E0ECA0934D1AE6D05A69BCDE9E91D2A611F573361E38FC1375157F5752AE6B6DFE4B11990F88CCBF0719EE23FF02504B0304140006080800CC70623B408A7D3B7C0000009D0000000B0000006662782F636E782E786D6C4DCCD10A83201886E15B91FFDC552A92A0064DBC8F581632
310
D3703A76F9ABD1C18E3E78F878E5F0D9027ABBFCF2292AE86E2D20171F69F6715550CB827B40839639A5F2770314A7CD293819B45C73AAFB45B35BA61ACAA1C1C7E7855C58C15BC331339661262CC762340413D68D77DA5B42298546CBE6573AF60CEB2F504B0304140006080800CC70623B449FB9BD290100001202000031
310
0000006662782F36394639363044362D344446342D343946362D394244322D3234314243333846323333332F636F72652E786D6C8D515B6EC32010BC0AE22B55850D98B871848994463E412FE002495162B07854397EA176A4F62F3F2C9A9D991D587EB84F37F0AD7D30CEF6905418026DA553C65E7A98E219ED203808EE9D
310
8B7F6810D871D23D2C3014FCE25D9A57483A1BB58D19B54EE9151C43D0110279CB971E06F9A5A7B11A53CC8C70ADE6515EC78BAE4895DB992778883E0700CB907242D17643D7E2538BD869608875438BBAE38922CAC8F1BDD90DB4691A5E2F42C153326A951B95E398B3D1FE599322163C9AE9115F7A3D46ADA0A018778810
310
84E907617BDCEE297BC5BB3DC6BC2EF47FA234AB2745C9D8D8D035EE220B50105E2F0DC1954B9FB747187D9F9D8FA0CCDB042D5FA0C015C65B42DF78BD10F3F3B363CB56C7109DCFDFBBB97E662ED92EB62D13BC2E1BCAE5777DB9966D8A1F504B0304140006080800CC70623BAD7543B64E01000033030000300000006662
310
782F36394639363044362D344446342D343946362D394244322D3234314243333846323333332F636E782E786D6CD593CD6EC32010845F0571AD6CE3D48AD20813A9873E410FBD12D82434182C7EAAE6EDBB2424CD25871E7B41D6EC30B3FA84F9E67BB2E40B4234DE8DB46F1925E094D7C6ED479AD3AE5951B2113C789FEE
310
6C943839C1488B4C05DF079FE72A69D8C96C13AAD6B8631503449F83828872B949AC57D26200B826A308D316B4064D6E46FCDA41C05550DC9E483A00797BFD207EFB092A45DE9514C1BBD22178396BD39D891265658C238DEA00936C654E5E433CB65A26D9F6EDB5EBC14EBF49A45CB856E66048291F6939A9A81BB5C89177
310
38143CA680F4AA299D66A042CEB3354A2684DC9D8D178FE0D9B8B41CAAD720F880EE7EF93C0C18769E099ECC04D5A102C8049A8A05632F4DDF376CF1DE0F6BB65C2F8627B65A33C6BB62177CEBBDAD973006829F89F22E814B54F4BC2BE347F8AA8F681390B50FA73F804400B5F542E796F19FF974E7F78DB802FE05E20750
310
4B0304140006080800CC70623B8D05915C650500003B100000340000006662782F36394639363044362D344446342D343946362D394244322D3234314243333846323333332F6F626A656374732E786D6CAD575B6FA33814FE2B887D06429276DA1565D4266D158D3A339A6846FB502932E050B66023DB74D2FDF5FB190C01
310
9276B2973C046C8ECFF53B17071F77456EBD502133CEAE6CDF9DD81665314F32965ED995DA3A17B6F5310C04E7AA47665B8C14F4CAD6DB7618A48257A5D94AE89654B91AEDDEDDFC61C998326A5B714EA4BCB265FC440BE2924AF184CA6737218AB8E976E7FA6E4338649B0A523E8D98964450A6A029F619B8588D52FE7039
310
B1BD30F0F4F730D0FF866AF6369557DB33949F31A9088B0F848DD8CCFCF9F2767A76E99CCDE733677E3EF59D9BBB9BA5E37F984D16E78BC5E5F5ED25044B25C0C96822E8D60EEFE11B91C581D77CEA34368A1F5329E68CD1B8B61F16D63A1B8E092D294B10C78C4A48EB593D192E7DED9BDEE7995E1B91FDEDD3ACEA9FE831
310
6A756F9F7D4D79F4274C90A7A04248AA51D5F8C718DAE06FB2F75AC4796EBE65D22A88A22223B995679120E2D50E41AA49C260C046A35368846B0BECD0DFF3EBEB8AD4F835768F69B9ADF25C43D30E6B646F807FAA64AD59F61715C7A54127C4AACA98BA3006A9D792DAE165E0D59B61A01FB3A9F9D838D2DAE62445C86166
310
F37564E842E7DE6A69879FEEA2DD5AE7E371E1A5E025154AC307D06A03D73EB5978C58FFA4C8E9033066E0F3BD53BEC1F39F91BE7B55103791EDE6BBB991A2046172CB4581D8B893FA674DDA17A77B3B7C413D1B511FD2743BFF8A38F03A658705E3ADF8015C3A3417FF3D7E439FF591DA0B5F18BC20C1B8981957AE6392A3
310
F43C640C01D1A0B4728E2DD4F26DB4B3C3152A252A3B4E913CEC1C72F012782FF88EFF8637AA552DBEF76408E8A8DE9E50F9E1CB3A2DA0DB1B6039A893B56063DC5B3E3FFB5F72E67AB9FEB4AEC496C4F4C1149625DD662C53E89D7BF0F6151A046260D1337DFDC94502430F83B0EE07A130A224BCAD7DAE1D9FB6CD422FF6
310
920702629C4BB9AE79C12F243C6432A6794E18E5552BA56B431AAB5D91317302B2B071E86C3A42B1A02F999E24061403B5D0EB639195DA655DD3EBEAB4FB862DDF579F014AD0E73C22F99E28DA57FB98E75C6CA2D74D53086D600F4786E0FE3144B771A8A7B900F03594DB8A633CBC49B2EDB69228BB479CF863B5E807AAAB
310
23872F6DFEB4129B949CA33823F58830E86D65621E10047D9DB34D862E8EAC3C2ABC2F7B2C40D67CDFE01F5545B92105AF983AC54D93D69E56FB8E797F88913F898A9FEC705D3F9D1B54EC8426FB500D40A03BD0119B06E1B95DDC7EB8F6975367793EBD70E66733DFB9BC982F9CE564727731999F5D4ECFCE3B8D6A4DC2A0
310
6D50FD148437D110834A64C6CDDF57FBACB5C307A2A477DFE4939736CFEF2B175371E0E10CF0DD1D5C15654E0BCA14D1E87DD02FF93782A162C0A3D95F1524A52770F972BF1EE9809D13CE7DD599467F8ECE9ADD85CE85A34CD45355448C64F9E8A031DC2D596ACC6E5DD93D9B82DE2EF5CAF81363A8E47996A0DE24564A79
310
4115AACE09C55E14540231FDA13C319787134EBF34E3A022514E5B4D9E0826E25C02D5805B15ABE1BEF51B26383D445DD9E875EE33FE4C22DA16427D65A3BCA92CA6D28DD01DF5DC53330704308475351050232CCD31583787BA75774AFB06E5070DD0C8EF484E19968C5D83BA5B90B244D31E54D55A372320FE4786B7EA58
310
44E135AA5467CB7EA333A61683CC6A8C3257034C10CF46F40EF9F5BE59BE5BD30C3C72D235E95D10345C1D45445A5F0BB47E46A5EBE5570F9380B5FA629579952296A773720405982B9DE04011506178964401AA8BDF1FBF0A8EAB6861DD6580C0E38217056766716DAEB2D6FA0917D3E4116581EADB879C4E7CFFB11EFACD
310
3D641311495D92C8676CB409A72D18610D803CE8A626049E8EC1887CB5B44CC39883690DDA8399B4B9855B481E7D71D4A9D22F96E5BB73BF5793020C02137BF837504B0304140006080000CC70623B000000000000000000000000350000006662782F36394639363044362D344446342D343946362D394244322D32343142
310
43333846323333332F76657274696365732E62696E504B0304140006080800CC70623BF270F1330600000004000000360000006662782F36394639363044362D344446342D343946362D394244322D3234314243333846323333332F747269616E676C65732E62696E636660600000504B0304140006080000CC70623B0000
310
00000000000000000000370000006662782F36394639363044362D344446342D343946362D394244322D3234314243333846323333332F617474726962757465732E62696E504B0304140006080800CC70623B08DA0BD19000000041010000360000006662782F36394639363044362D344446342D343946362D394244322D
310
3234314243333846323333332F6469726563746F72792E786D6C858F410AC3201045AF22B36F53E9A60B35CBEEBAE80D244E44489C6234F4F835464A48035D0DF398FF9F8AF63D0E6CC63039F212F8F9020C7D47C6792B21C5FE7403D62A1188E2E60C98D7234A5830286103A55745067B9D86B8A3CF9C7F90C11DE607FB14
310
4396D7B6A82D282E9A152AD114D5EF2CB866EEE831B8EEA07A7BB5A8D7D61A2BAAEB7FD5F70921FF497D00504B0304140006080800CC70623BCA768048FE000000A00100003B0000006662782F36394639363044362D344446342D343946362D394244322D3234314243333846323333332F7265736F75726365732F636F72
310
652E786D6C8D50596E833010BD0A9ADFCA60D600328E9AA639412F609909B1126CE4A5EAF16B0295DABFFECC8CDEA2797AECF8353F924FB44E193D409E5248504B332A3D0D10FC95B4901C39B3C6F85F3248B49871801506CE266BC2B243D2688FDA47549B11775038871E12F988C7004EDE7016A9083E2ADC3D5D84BC8B09
310
D33C8D74D471E6BC8D0192EDC93A815B742658898E651BCB59086ADC356A8C3FD555A1055ED7E7E254D615792D0F075295F585746FF53B694EE78A565DD736979A65AB9933AFE69F8CD2A2F038022F28ED489E135A7CE4554F9BBEA85E68DB53CAB255FEC71496F19FA6A0B42F8B3DEE6673C0F318E4497096AD7DC5F52C33
310
EEB55BFE0D504B010214000A0000080000CC70623B3DEE336E79000000790000001B00000000000000000000000000000000006175746F6465736B2D64657369676E2D7061636B6167652E786D6C504B01021400140006080800CC70623BD486FD9CA0000000F40000001300000000000000000000000000B20000005B436F
310
6E74656E745F54797065735D2E786D6C504B01021400140006080800CC70623BD9DDAED0EC0000007C010000080000000000000000000000000083010000636F72652E786D6C504B01021400140006080800CC70623B55019EA25F0000007C000000070000000000000000000000000095020000636E782E786D6C504B0102
310
1400140006080800CC70623BA24EB22D72010000D40300000C00000000000000000000000000190300006662782F636F72652E786D6C504B01021400140006080800CC70623B408A7D3B7C0000009D0000000B00000000000000000000000000B50400006662782F636E782E786D6C504B01021400140006080800CC70623B
310
449FB9BD290100001202000031000000000000000000000000005A0500006662782F36394639363044362D344446342D343946362D394244322D3234314243333846323333332F636F72652E786D6C504B01021400140006080800CC70623BAD7543B64E010000330300003000000000000000000000000000D20600006662
310
782F36394639363044362D344446342D343946362D394244322D3234314243333846323333332F636E782E786D6C504B01021400140006080800CC70623B8D05915C650500003B10000034000000000000000000000000006E0800006662782F36394639363044362D344446342D343946362D394244322D32343142433338
310
46323333332F6F626A656374732E786D6C504B01021400140006080000CC70623B0000000000000000000000003500000000000000000000000000250E00006662782F36394639363044362D344446342D343946362D394244322D3234314243333846323333332F76657274696365732E62696E504B010214001400060808
310
00CC70623BF270F13306000000040000003600000000000000000000000000780E00006662782F36394639363044362D344446342D343946362D394244322D3234314243333846323333332F747269616E676C65732E62696E504B01021400140006080000CC70623B00000000000000000000000037000000000000000000
310
00000000D20E00006662782F36394639363044362D344446342D343946362D394244322D3234314243333846323333332F617474726962757465732E62696E504B01021400140006080800CC70623B08DA0BD190000000410100003600000000000000000000000000270F00006662782F36394639363044362D344446342D
310
343946362D394244322D3234314243333846323333332F6469726563746F72792E786D6C504B01021400140006080800CC70623BCA768048FE000000A00100003B000000000000000000000000000B1000006662782F36394639363044362D344446342D343946362D394244322D3234314243333846323333332F7265736F
310
75726365732F636F72652E786D6C504B0506000000000E000E0080040000621100000000
  0
XRECORD
  5
176
102
{ACAD_REACTORS
330
173
102
}
330
173
100
AcDbXrecord
280
     1
270
     1
271
     1
  0
XRECORD
  5
177
102
{ACAD_REACTORS
330
173
102
}
330
173
100
AcDbXrecord
280
     1
270
     1
271
     1
  0
XRECORD
  5
566
102
{ACAD_REACTORS
330
565
102
}
330
565
100
AcDbXrecord
280
     1
102
DISPLAYNAME
  1
Metric50
102
FLAGS
 90
        0
  0
CELLSTYLEMAP
  5
527
102
{ACAD_REACTORS
330
162
102
}
330
162
100
AcDbCellStyleMap
 90
        3
300
CELLSTYLE
  1
TABLEFORMAT_BEGIN
 90
        5
170
     1
 91
        0
 92
    32768
 62
   257
 93
        1
300
CONTENTFORMAT
  1
CONTENTFORMAT_BEGIN
 90
        0
 91
        0
 92
      512
 93
        0
300

 40
0.0
140
1.0
 94
        5
 62
     0
340
11
144
6.0
309
CONTENTFORMAT_END
171
     1
301
MARGIN
  1
CELLMARGIN_BEGIN
 40
1.5
 40
1.5
 40
1.5
 40
1.5
 40
4.5
 40
4.5
309
CELLMARGIN_END
 94
        6
 95
        1
302
GRIDFORMAT
  1
GRIDFORMAT_BEGIN
 90
        0
 91
        1
 62
     0
 92
       -2
340
14
 93
        0
 40
1.125
309
GRIDFORMAT_END
 95
        2
302
GRIDFORMAT
  1
GRIDFORMAT_BEGIN
 90
        0
 91
        1
 62
     0
 92
       -2
340
14
 93
        0
 40
1.125
309
GRIDFORMAT_END
 95
        4
302
GRIDFORMAT
  1
GRIDFORMAT_BEGIN
 90
        0
 91
        1
 62
     0
 92
       -2
340
14
 93
        0
 40
1.125
309
GRIDFORMAT_END
 95
        8
302
GRIDFORMAT
  1
GRIDFORMAT_BEGIN
 90
        0
 91
        1
 62
     0
 92
       -2
340
14
 93
        0
 40
1.125
309
GRIDFORMAT_END
 95
       16
302
GRIDFORMAT
  1
GRIDFORMAT_BEGIN
 90
        0
 91
        1
 62
     0
 92
       -2
340
14
 93
        0
 40
1.125
309
GRIDFORMAT_END
 95
       32
302
GRIDFORMAT
  1
GRIDFORMAT_BEGIN
 90
        0
 91
        1
 62
     0
 92
       -2
340
14
 93
        0
 40
1.125
309
GRIDFORMAT_END
309
TABLEFORMAT_END
  1
CELLSTYLE_BEGIN
 90
        1
 91
        1
300
_TITLE
309
CELLSTYLE_END
300
CELLSTYLE
  1
TABLEFORMAT_BEGIN
 90
        5
170
     1
 91
        0
 92
        0
 62
   257
 93
        1
300
CONTENTFORMAT
  1
CONTENTFORMAT_BEGIN
 90
        0
 91
        0
 92
      512
 93
        0
300

 40
0.0
140
1.0
 94
        5
 62
     0
340
11
144
4.5
309
CONTENTFORMAT_END
171
     1
301
MARGIN
  1
CELLMARGIN_BEGIN
 40
1.5
 40
1.5
 40
1.5
 40
1.5
 40
4.5
 40
4.5
309
CELLMARGIN_END
 94
        6
 95
        1
302
GRIDFORMAT
  1
GRIDFORMAT_BEGIN
 90
        0
 91
        1
 62
     0
 92
       -2
340
14
 93
        0
 40
1.125
309
GRIDFORMAT_END
 95
        2
302
GRIDFORMAT
  1
GRIDFORMAT_BEGIN
 90
        0
 91
        1
 62
     0
 92
       -2
340
14
 93
        0
 40
1.125
309
GRIDFORMAT_END
 95
        4
302
GRIDFORMAT
  1
GRIDFORMAT_BEGIN
 90
        0
 91
        1
 62
     0
 92
       -2
340
14
 93
        0
 40
1.125
309
GRIDFORMAT_END
 95
        8
302
GRIDFORMAT
  1
GRIDFORMAT_BEGIN
 90
        0
 91
        1
 62
     0
 92
       -2
340
14
 93
        0
 40
1.125
309
GRIDFORMAT_END
 95
       16
302
GRIDFORMAT
  1
GRIDFORMAT_BEGIN
 90
        0
 91
        1
 62
     0
 92
       -2
340
14
 93
        0
 40
1.125
309
GRIDFORMAT_END
 95
       32
302
GRIDFORMAT
  1
GRIDFORMAT_BEGIN
 90
        0
 91
        1
 62
     0
 92
       -2
340
14
 93
        0
 40
1.125
309
GRIDFORMAT_END
309
TABLEFORMAT_END
  1
CELLSTYLE_BEGIN
 90
        2
 91
        1
300
_HEADER
309
CELLSTYLE_END
300
CELLSTYLE
  1
TABLEFORMAT_BEGIN
 90
        5
170
     1
 91
        0
 92
        0
 62
   257
 93
        1
300
CONTENTFORMAT
  1
CONTENTFORMAT_BEGIN
 90
        0
 91
        0
 92
      512
 93
        0
300

 40
0.0
140
1.0
 94
        2
 62
     0
340
11
144
4.5
309
CONTENTFORMAT_END
171
     1
301
MARGIN
  1
CELLMARGIN_BEGIN
 40
1.5
 40
1.5
 40
1.5
 40
1.5
 40
4.5
 40
4.5
309
CELLMARGIN_END
 94
        6
 95
        1
302
GRIDFORMAT
  1
GRIDFORMAT_BEGIN
 90
        0
 91
        1
 62
     0
 92
       -2
340
14
 93
        0
 40
1.125
309
GRIDFORMAT_END
 95
        2
302
GRIDFORMAT
  1
GRIDFORMAT_BEGIN
 90
        0
 91
        1
 62
     0
 92
       -2
340
14
 93
        0
 40
1.125
309
GRIDFORMAT_END
 95
        4
302
GRIDFORMAT
  1
GRIDFORMAT_BEGIN
 90
        0
 91
        1
 62
     0
 92
       -2
340
14
 93
        0
 40
1.125
309
GRIDFORMAT_END
 95
        8
302
GRIDFORMAT
  1
GRIDFORMAT_BEGIN
 90
        0
 91
        1
 62
     0
 92
       -2
340
14
 93
        0
 40
1.125
309
GRIDFORMAT_END
 95
       16
302
GRIDFORMAT
  1
GRIDFORMAT_BEGIN
 90
        0
 91
        1
 62
     0
 92
       -2
340
14
 93
        0
 40
1.125
309
GRIDFORMAT_END
 95
       32
302
GRIDFORMAT
  1
GRIDFORMAT_BEGIN
 90
        0
 91
        1
 62
     0
 92
       -2
340
14
 93
        0
 40
1.125
309
GRIDFORMAT_END
309
TABLEFORMAT_END
  1
CELLSTYLE_BEGIN
 90
        3
 91
        2
300
_DATA
309
CELLSTYLE_END
  0
XRECORD
  5
531
102
{ACAD_REACTORS
330
162
102
}
330
162
100
AcDbXrecord
280
     1
102
ACAD_ROUNDTRIP_PRE2007_TABLESTYLE
 90
      512
 91
        0
  1

 92
      512
 93
        0
  2

 94
      512
 95
        0
  3

  0
XRECORD
  5
540
102
{ACAD_REACTORS
330
53F
102
}
330
53F
100
AcDbXrecord
280
     1
102
RTVSPost2010Prop28
280
     1
102
RTVSPost2010PropOp28
 70
     1
102
RTVSPost2010Prop29
280
     1
102
RTVSPost2010PropOp29
 70
     1
102
RTVSPost2010Prop30
280
     0
102
RTVSPost2010PropOp30
 70
     1
102
RTVSPost2010Prop31
280
     0
102
RTVSPost2010PropOp31
 70
     1
102
RTVSPost2010Prop32
280
     0
102
RTVSPost2010PropOp32
 70
     1
102
RTVSPost2010Prop33
280
     0
102
RTVSPost2010PropOp33
 70
     1
102
RTVSPost2010Prop34
280
     0
102
RTVSPost2010PropOp34
 70
     1
102
RTVSPost2010Prop35
280
     0
102
RTVSPost2010PropOp35
 70
     1
102
RTVSPost2010Prop36
280
     0
102
RTVSPost2010PropOp36
 70
     1
102
RTVSPost2010Prop37
 90
       50
102
RTVSPost2010PropOp37
 70
     1
102
RTVSPost2010Prop38
140
0.0
102
RTVSPost2010PropOp38
 70
     1
102
RTVSPost2010Prop39
140
1.0
102
RTVSPost2010PropOp39
 70
     1
102
RTVSPost2010Prop40
 90
        0
102
RTVSPost2010PropOp40
 70
     1
102
RTVSPost2010Prop41ColorIndex
 90
       18
102
RTVSPost2010Prop41ColorRGB
 90
        0
102
RTVSPost2010PropOp41
 70
     1
102
RTVSPost2010Prop42
 90
       50
102
RTVSPost2010PropOp42
 70
     1
102
RTVSPost2010Prop43
 90
        3
102
RTVSPost2010PropOp43
 70
     1
102
RTVSPost2010Prop44ColorIndex
 90
        5
102
RTVSPost2010Prop44ColorRGB
 90
      255
102
RTVSPost2010PropOp44
 70
     1
102
RTVSPost2010Prop45
280
     0
102
RTVSPost2010PropOp45
 70
     1
102
RTVSPost2010Prop46
 90
       50
102
RTVSPost2010PropOp46
 70
     1
102
RTVSPost2010Prop47
 90
       50
102
RTVSPost2010PropOp47
 70
     1
102
RTVSPost2010Prop48
 90
       50
102
RTVSPost2010PropOp48
 70
     1
102
RTVSPost2010Prop49
280
     0
102
RTVSPost2010PropOp49
 70
     1
102
RTVSPost2010Prop50
 90
       50
102
RTVSPost2010PropOp50
 70
     1
102
RTVSPost2010Prop51ColorIndex
 90
      256
102
RTVSPost2010Prop51ColorRGB
 90
-16777216
102
RTVSPost2010PropOp51
 70
     0
102
RTVSPost2010Prop52
140
1.0
102
RTVSPost2010PropOp52
 70
     0
102
RTVSPost2010Prop53
 90
        2
102
RTVSPost2010PropOp53
 70
     1
102
RTVSPost2010Prop54
  1
strokes_ogs.tif
102
RTVSPost2010PropOp54
 70
     1
102
RTVSPost2010Prop55
280
     0
102
RTVSPost2010PropOp55
 70
     1
102
RTVSPost2010Prop56
140
1.0
102
RTVSPost2010PropOp56
 70
     1
102
RTVSPost2010Prop57
140
1.0
102
RTVSPost2010PropOp57
 70
     1
102
RTVSPropertyOp0
 70
     1
102
RTVSPropertyOp1
 70
     1
102
RTVSPropertyOp2
 70
     1
102
RTVSPropertyOp3
 70
     1
102
RTVSPropertyOp4
 70
     1
102
RTVSPropertyOp5
 70
     1
102
RTVSPropertyOp6
 70
     1
102
RTVSPropertyOp7
 70
     1
102
RTVSPropertyOp8
 70
     1
102
RTVSPropertyOp9
 70
     1
102
RTVSPropertyOp10
 70
     1
102
RTVSPropertyOp11
 70
     1
102
RTVSPropertyOp12
 70
     1
102
RTVSPropertyOp13
 70
     1
102
RTVSPropertyOp14
 70
     1
102
RTVSPropertyOp15
 70
     1
102
RTVSPropertyOp16
 70
     1
102
RTVSPropertyOp17
 70
     1
102
RTVSPropertyOp18
 70
     1
102
RTVSPropertyOp19
 70
     1
102
RTVSPropertyOp20
 70
     1
102
RTVSPropertyOp21
 70
     1
102
RTVSPropertyOp22
 70
     1
102
RTVSPropertyOp23
 70
     1
102
RTVSPropertyOp24
 70
     1
102
RTVSPropertyOp25
 70
     1
102
RTVSPropertyOp26
 70
     1
102
RTVSPropertyOp27
 70
     1
102
RTVSPropertyOp28
 70
     1
102
RTVSPropertyOp29
 70
     1
102
RTVSPropertyOp30
 70
     1
102
RTVSPropertyOp31
 70
     1
102
RTVSPropertyOp32
 70
     1
102
RTVSPropertyOp33
 70
     1
102
RTVSPropertyOp34
 70
     1
102
RTVSPropertyOp35
 70
     1
102
RTVSPropertyOp36
 70
     1
102
RTVSPropertyOp37
 70
     1
102
RTVSPropertyOp38
 70
     1
102
RTVSPropertyOp39
 70
     1
102
RTVSPropertyOp40
 70
     1
102
RTVSPropertyOp41
 70
     1
102
RTVSPropertyOp42
 70
     1
102
RTVSPropertyOp43
 70
     1
102
RTVSPropertyOp44
 70
     1
102
RTVSPropertyOp45
 70
     1
102
RTVSPropertyOp46
 70
     1
102
RTVSPropertyOp47
 70
     1
102
RTVSPropertyOp48
 70
     1
102
RTVSPropertyOp49
 70
     1
102
RTVSPropertyOp50
 70
     1
102
RTVSPropertyOp51
 70
     0
102
RTVSPropertyOp52
 70
     0
102
RTVSPropertyOp53
 70
     1
102
RTVSPropertyOp54
 70
     1
102
RTVSPropertyOp55
 70
     1
102
RTVSPropertyOp56
 70
     1
102
RTVSPropertyOp57
 70
     1
102
RTVSPropertyOp58
 70
     1
102
RTVSPropertyOp59
 70
     1
102
RTVSPropertyOp60
 70
     1
102
RTVSPropertyOp61
 70
     1
102
RTVSPropertyOp62
 70
     1
  0
XRECORD
  5
53E
102
{ACAD_REACTORS
330
53D
102
}
330
53D
100
AcDbXrecord
280
     1
102
RTVSPost2010Prop28
280
     0
102
RTVSPost2010PropOp28
 70
     1
102
RTVSPost2010Prop29
280
     1
102
RTVSPost2010PropOp29
 70
     1
102
RTVSPost2010Prop30
280
     1
102
RTVSPost2010PropOp30
 70
     1
102
RTVSPost2010Prop31
280
     0
102
RTVSPost2010PropOp31
 70
     1
102
RTVSPost2010Prop32
280
     0
102
RTVSPost2010PropOp32
 70
     1
102
RTVSPost2010Prop33
280
     0
102
RTVSPost2010PropOp33
 70
     1
102
RTVSPost2010Prop34
280
     0
102
RTVSPost2010PropOp34
 70
     1
102
RTVSPost2010Prop35
280
     0
102
RTVSPost2010PropOp35
 70
     1
102
RTVSPost2010Prop36
280
     0
102
RTVSPost2010PropOp36
 70
     1
102
RTVSPost2010Prop37
 90
       50
102
RTVSPost2010PropOp37
 70
     1
102
RTVSPost2010Prop38
140
0.0
102
RTVSPost2010PropOp38
 70
     1
102
RTVSPost2010Prop39
140
1.0
102
RTVSPost2010PropOp39
 70
     1
102
RTVSPost2010Prop40
 90
        0
102
RTVSPost2010PropOp40
 70
     1
102
RTVSPost2010Prop41ColorIndex
 90
       18
102
RTVSPost2010Prop41ColorRGB
 90
        0
102
RTVSPost2010PropOp41
 70
     1
102
RTVSPost2010Prop42
 90
       50
102
RTVSPost2010PropOp42
 70
     1
102
RTVSPost2010Prop43
 90
        3
102
RTVSPost2010PropOp43
 70
     1
102
RTVSPost2010Prop44ColorIndex
 90
        5
102
RTVSPost2010Prop44ColorRGB
 90
      255
102
RTVSPost2010PropOp44
 70
     1
102
RTVSPost2010Prop45
280
     0
102
RTVSPost2010PropOp45
 70
     1
102
RTVSPost2010Prop46
 90
       50
102
RTVSPost2010PropOp46
 70
     1
102
RTVSPost2010Prop47
 90
       50
102
RTVSPost2010PropOp47
 70
     1
102
RTVSPost2010Prop48
 90
       50
102
RTVSPost2010PropOp48
 70
     1
102
RTVSPost2010Prop49
280
     0
102
RTVSPost2010PropOp49
 70
     1
102
RTVSPost2010Prop50
 90
       50
102
RTVSPost2010PropOp50
 70
     1
102
RTVSPost2010Prop51ColorIndex
 90
      256
102
RTVSPost2010Prop51ColorRGB
 90
-16777216
102
RTVSPost2010PropOp51
 70
     0
102
RTVSPost2010Prop52
140
1.0
102
RTVSPost2010PropOp52
 70
     0
102
RTVSPost2010Prop53
 90
        2
102
RTVSPost2010PropOp53
 70
     1
102
RTVSPost2010Prop54
  1
strokes_ogs.tif
102
RTVSPost2010PropOp54
 70
     1
102
RTVSPost2010Prop55
280
     0
102
RTVSPost2010PropOp55
 70
     1
102
RTVSPost2010Prop56
140
1.0
102
RTVSPost2010PropOp56
 70
     1
102
RTVSPost2010Prop57
140
1.0
102
RTVSPost2010PropOp57
 70
     1
102
RTVSPropertyOp0
 70
     1
102
RTVSPropertyOp1
 70
     1
102
RTVSPropertyOp2
 70
     1
102
RTVSPropertyOp3
 70
     1
102
RTVSPropertyOp4
 70
     1
102
RTVSPropertyOp5
 70
     1
102
RTVSPropertyOp6
 70
     1
102
RTVSPropertyOp7
 70
     1
102
RTVSPropertyOp8
 70
     1
102
RTVSPropertyOp9
 70
     1
102
RTVSPropertyOp10
 70
     1
102
RTVSPropertyOp11
 70
     1
102
RTVSPropertyOp12
 70
     1
102
RTVSPropertyOp13
 70
     1
102
RTVSPropertyOp14
 70
     1
102
RTVSPropertyOp15
 70
     1
102
RTVSPropertyOp16
 70
     1
102
RTVSPropertyOp17
 70
     1
102
RTVSPropertyOp18
 70
     1
102
RTVSPropertyOp19
 70
     1
102
RTVSPropertyOp20
 70
     1
102
RTVSPropertyOp21
 70
     1
102
RTVSPropertyOp22
 70
     1
102
RTVSPropertyOp23
 70
     1
102
RTVSPropertyOp24
 70
     1
102
RTVSPropertyOp25
 70
     1
102
RTVSPropertyOp26
 70
     1
102
RTVSPropertyOp27
 70
     1
102
RTVSPropertyOp28
 70
     1
102
RTVSPropertyOp29
 70
     1
102
RTVSPropertyOp30
 70
     1
102
RTVSPropertyOp31
 70
     1
102
RTVSPropertyOp32
 70
     1
102
RTVSPropertyOp33
 70
     1
102
RTVSPropertyOp34
 70
     1
102
RTVSPropertyOp35
 70
     1
102
RTVSPropertyOp36
 70
     1
102
RTVSPropertyOp37
 70
     1
102
RTVSPropertyOp38
 70
     1
102
RTVSPropertyOp39
 70
     1
102
RTVSPropertyOp40
 70
     1
102
RTVSPropertyOp41
 70
     1
102
RTVSPropertyOp42
 70
     1
102
RTVSPropertyOp43
 70
     1
102
RTVSPropertyOp44
 70
     1
102
RTVSPropertyOp45
 70
     1
102
RTVSPropertyOp46
 70
     1
102
RTVSPropertyOp47
 70
     1
102
RTVSPropertyOp48
 70
     1
102
RTVSPropertyOp49
 70
     1
102
RTVSPropertyOp50
 70
     1
102
RTVSPropertyOp51
 70
     0
102
RTVSPropertyOp52
 70
     0
102
RTVSPropertyOp53
 70
     1
102
RTVSPropertyOp54
 70
     1
102
RTVSPropertyOp55
 70
     1
102
RTVSPropertyOp56
 70
     1
102
RTVSPropertyOp57
 70
     1
102
RTVSPropertyOp58
 70
     1
102
RTVSPropertyOp59
 70
     1
102
RTVSPropertyOp60
 70
     1
102
RTVSPropertyOp61
 70
     1
102
RTVSPropertyOp62
 70
     1
  0
XRECORD
  5
54C
102
{ACAD_REACTORS
330
54B
102
}
330
54B
100
AcDbXrecord
280
     1
102
RTVSPost2010Prop28
280
     0
102
RTVSPost2010PropOp28
 70
     1
102
RTVSPost2010Prop29
280
     1
102
RTVSPost2010PropOp29
 70
     1
102
RTVSPost2010Prop30
280
     1
102
RTVSPost2010PropOp30
 70
     1
102
RTVSPost2010Prop31
280
     0
102
RTVSPost2010PropOp31
 70
     1
102
RTVSPost2010Prop32
280
     0
102
RTVSPost2010PropOp32
 70
     1
102
RTVSPost2010Prop33
280
     0
102
RTVSPost2010PropOp33
 70
     1
102
RTVSPost2010Prop34
280
     0
102
RTVSPost2010PropOp34
 70
     1
102
RTVSPost2010Prop35
280
     0
102
RTVSPost2010PropOp35
 70
     1
102
RTVSPost2010Prop36
280
     0
102
RTVSPost2010PropOp36
 70
     1
102
RTVSPost2010Prop37
 90
       50
102
RTVSPost2010PropOp37
 70
     1
102
RTVSPost2010Prop38
140
0.0
102
RTVSPost2010PropOp38
 70
     1
102
RTVSPost2010Prop39
140
1.0
102
RTVSPost2010PropOp39
 70
     1
102
RTVSPost2010Prop40
 90
        0
102
RTVSPost2010PropOp40
 70
     1
102
RTVSPost2010Prop41ColorIndex
 90
       18
102
RTVSPost2010Prop41ColorRGB
 90
        0
102
RTVSPost2010PropOp41
 70
     1
102
RTVSPost2010Prop42
 90
       50
102
RTVSPost2010PropOp42
 70
     1
102
RTVSPost2010Prop43
 90
        3
102
RTVSPost2010PropOp43
 70
     1
102
RTVSPost2010Prop44ColorIndex
 90
        5
102
RTVSPost2010Prop44ColorRGB
 90
      255
102
RTVSPost2010PropOp44
 70
     1
102
RTVSPost2010Prop45
280
     0
102
RTVSPost2010PropOp45
 70
     1
102
RTVSPost2010Prop46
 90
       50
102
RTVSPost2010PropOp46
 70
     1
102
RTVSPost2010Prop47
 90
       50
102
RTVSPost2010PropOp47
 70
     1
102
RTVSPost2010Prop48
 90
       50
102
RTVSPost2010PropOp48
 70
     1
102
RTVSPost2010Prop49
280
     0
102
RTVSPost2010PropOp49
 70
     1
102
RTVSPost2010Prop50
 90
       50
102
RTVSPost2010PropOp50
 70
     1
102
RTVSPost2010Prop51ColorIndex
 90
      256
102
RTVSPost2010Prop51ColorRGB
 90
-16777216
102
RTVSPost2010PropOp51
 70
     0
102
RTVSPost2010Prop52
140
1.0
102
RTVSPost2010PropOp52
 70
     0
102
RTVSPost2010Prop53
 90
        2
102
RTVSPost2010PropOp53
 70
     1
102
RTVSPost2010Prop54
  1
strokes_ogs.tif
102
RTVSPost2010PropOp54
 70
     1
102
RTVSPost2010Prop55
280
     0
102
RTVSPost2010PropOp55
 70
     1
102
RTVSPost2010Prop56
140
1.0
102
RTVSPost2010PropOp56
 70
     1
102
RTVSPost2010Prop57
140
1.0
102
RTVSPost2010PropOp57
 70
     1
102
RTVSPropertyOp0
 70
     1
102
RTVSPropertyOp1
 70
     1
102
RTVSPropertyOp2
 70
     1
102
RTVSPropertyOp3
 70
     1
102
RTVSPropertyOp4
 70
     1
102
RTVSPropertyOp5
 70
     1
102
RTVSPropertyOp6
 70
     1
102
RTVSPropertyOp7
 70
     1
102
RTVSPropertyOp8
 70
     1
102
RTVSPropertyOp9
 70
     1
102
RTVSPropertyOp10
 70
     1
102
RTVSPropertyOp11
 70
     1
102
RTVSPropertyOp12
 70
     1
102
RTVSPropertyOp13
 70
     1
102
RTVSPropertyOp14
 70
     1
102
RTVSPropertyOp15
 70
     1
102
RTVSPropertyOp16
 70
     1
102
RTVSPropertyOp17
 70
     1
102
RTVSPropertyOp18
 70
     1
102
RTVSPropertyOp19
 70
     1
102
RTVSPropertyOp20
 70
     1
102
RTVSPropertyOp21
 70
     1
102
RTVSPropertyOp22
 70
     1
102
RTVSPropertyOp23
 70
     1
102
RTVSPropertyOp24
 70
     1
102
RTVSPropertyOp25
 70
     1
102
RTVSPropertyOp26
 70
     1
102
RTVSPropertyOp27
 70
     1
102
RTVSPropertyOp28
 70
     1
102
RTVSPropertyOp29
 70
     1
102
RTVSPropertyOp30
 70
     1
102
RTVSPropertyOp31
 70
     1
102
RTVSPropertyOp32
 70
     1
102
RTVSPropertyOp33
 70
     1
102
RTVSPropertyOp34
 70
     1
102
RTVSPropertyOp35
 70
     1
102
RTVSPropertyOp36
 70
     1
102
RTVSPropertyOp37
 70
     1
102
RTVSPropertyOp38
 70
     1
102
RTVSPropertyOp39
 70
     1
102
RTVSPropertyOp40
 70
     1
102
RTVSPropertyOp41
 70
     1
102
RTVSPropertyOp42
 70
     1
102
RTVSPropertyOp43
 70
     1
102
RTVSPropertyOp44
 70
     1
102
RTVSPropertyOp45
 70
     1
102
RTVSPropertyOp46
 70
     1
102
RTVSPropertyOp47
 70
     1
102
RTVSPropertyOp48
 70
     1
102
RTVSPropertyOp49
 70
     1
102
RTVSPropertyOp50
 70
     1
102
RTVSPropertyOp51
 70
     0
102
RTVSPropertyOp52
 70
     0
102
RTVSPropertyOp53
 70
     1
102
RTVSPropertyOp54
 70
     1
102
RTVSPropertyOp55
 70
     1
102
RTVSPropertyOp56
 70
     1
102
RTVSPropertyOp57
 70
     1
102
RTVSPropertyOp58
 70
     1
102
RTVSPropertyOp59
 70
     1
102
RTVSPropertyOp60
 70
     1
102
RTVSPropertyOp61
 70
     1
102
RTVSPropertyOp62
 70
     1
  0
XRECORD
  5
554
102
{ACAD_REACTORS
330
553
102
}
330
553
100
AcDbXrecord
280
     1
102
RTVSPost2010Prop28
280
     0
102
RTVSPost2010PropOp28
 70
     1
102
RTVSPost2010Prop29
280
     1
102
RTVSPost2010PropOp29
 70
     1
102
RTVSPost2010Prop30
280
     1
102
RTVSPost2010PropOp30
 70
     1
102
RTVSPost2010Prop31
280
     0
102
RTVSPost2010PropOp31
 70
     1
102
RTVSPost2010Prop32
280
     0
102
RTVSPost2010PropOp32
 70
     1
102
RTVSPost2010Prop33
280
     0
102
RTVSPost2010PropOp33
 70
     1
102
RTVSPost2010Prop34
280
     0
102
RTVSPost2010PropOp34
 70
     1
102
RTVSPost2010Prop35
280
     0
102
RTVSPost2010PropOp35
 70
     1
102
RTVSPost2010Prop36
280
     0
102
RTVSPost2010PropOp36
 70
     1
102
RTVSPost2010Prop37
 90
       50
102
RTVSPost2010PropOp37
 70
     1
102
RTVSPost2010Prop38
140
0.0
102
RTVSPost2010PropOp38
 70
     1
102
RTVSPost2010Prop39
140
1.0
102
RTVSPost2010PropOp39
 70
     1
102
RTVSPost2010Prop40
 90
        0
102
RTVSPost2010PropOp40
 70
     1
102
RTVSPost2010Prop41ColorIndex
 90
       18
102
RTVSPost2010Prop41ColorRGB
 90
        0
102
RTVSPost2010PropOp41
 70
     1
102
RTVSPost2010Prop42
 90
       50
102
RTVSPost2010PropOp42
 70
     1
102
RTVSPost2010Prop43
 90
        3
102
RTVSPost2010PropOp43
 70
     1
102
RTVSPost2010Prop44ColorIndex
 90
        5
102
RTVSPost2010Prop44ColorRGB
 90
      255
102
RTVSPost2010PropOp44
 70
     1
102
RTVSPost2010Prop45
280
     0
102
RTVSPost2010PropOp45
 70
     1
102
RTVSPost2010Prop46
 90
       50
102
RTVSPost2010PropOp46
 70
     1
102
RTVSPost2010Prop47
 90
       50
102
RTVSPost2010PropOp47
 70
     1
102
RTVSPost2010Prop48
 90
       50
102
RTVSPost2010PropOp48
 70
     1
102
RTVSPost2010Prop49
280
     0
102
RTVSPost2010PropOp49
 70
     1
102
RTVSPost2010Prop50
 90
       50
102
RTVSPost2010PropOp50
 70
     1
102
RTVSPost2010Prop51ColorIndex
 90
      256
102
RTVSPost2010Prop51ColorRGB
 90
-16777216
102
RTVSPost2010PropOp51
 70
     0
102
RTVSPost2010Prop52
140
1.0
102
RTVSPost2010PropOp52
 70
     0
102
RTVSPost2010Prop53
 90
        2
102
RTVSPost2010PropOp53
 70
     1
102
RTVSPost2010Prop54
  1
strokes_ogs.tif
102
RTVSPost2010PropOp54
 70
     1
102
RTVSPost2010Prop55
280
     0
102
RTVSPost2010PropOp55
 70
     1
102
RTVSPost2010Prop56
140
1.0
102
RTVSPost2010PropOp56
 70
     1
102
RTVSPost2010Prop57
140
1.0
102
RTVSPost2010PropOp57
 70
     1
102
RTVSPropertyOp0
 70
     1
102
RTVSPropertyOp1
 70
     1
102
RTVSPropertyOp2
 70
     1
102
RTVSPropertyOp3
 70
     1
102
RTVSPropertyOp4
 70
     1
102
RTVSPropertyOp5
 70
     1
102
RTVSPropertyOp6
 70
     1
102
RTVSPropertyOp7
 70
     1
102
RTVSPropertyOp8
 70
     1
102
RTVSPropertyOp9
 70
     1
102
RTVSPropertyOp10
 70
     1
102
RTVSPropertyOp11
 70
     1
102
RTVSPropertyOp12
 70
     1
102
RTVSPropertyOp13
 70
     1
102
RTVSPropertyOp14
 70
     1
102
RTVSPropertyOp15
 70
     1
102
RTVSPropertyOp16
 70
     1
102
RTVSPropertyOp17
 70
     1
102
RTVSPropertyOp18
 70
     1
102
RTVSPropertyOp19
 70
     1
102
RTVSPropertyOp20
 70
     1
102
RTVSPropertyOp21
 70
     1
102
RTVSPropertyOp22
 70
     1
102
RTVSPropertyOp23
 70
     1
102
RTVSPropertyOp24
 70
     1
102
RTVSPropertyOp25
 70
     1
102
RTVSPropertyOp26
 70
     1
102
RTVSPropertyOp27
 70
     1
102
RTVSPropertyOp28
 70
     1
102
RTVSPropertyOp29
 70
     1
102
RTVSPropertyOp30
 70
     1
102
RTVSPropertyOp31
 70
     1
102
RTVSPropertyOp32
 70
     1
102
RTVSPropertyOp33
 70
     1
102
RTVSPropertyOp34
 70
     1
102
RTVSPropertyOp35
 70
     1
102
RTVSPropertyOp36
 70
     1
102
RTVSPropertyOp37
 70
     1
102
RTVSPropertyOp38
 70
     1
102
RTVSPropertyOp39
 70
     1
102
RTVSPropertyOp40
 70
     1
102
RTVSPropertyOp41
 70
     1
102
RTVSPropertyOp42
 70
     1
102
RTVSPropertyOp43
 70
     1
102
RTVSPropertyOp44
 70
     1
102
RTVSPropertyOp45
 70
     1
102
RTVSPropertyOp46
 70
     1
102
RTVSPropertyOp47
 70
     1
102
RTVSPropertyOp48
 70
     1
102
RTVSPropertyOp49
 70
     1
102
RTVSPropertyOp50
 70
     1
102
RTVSPropertyOp51
 70
     0
102
RTVSPropertyOp52
 70
     0
102
RTVSPropertyOp53
 70
     1
102
RTVSPropertyOp54
 70
     1
102
RTVSPropertyOp55
 70
     1
102
RTVSPropertyOp56
 70
     1
102
RTVSPropertyOp57
 70
     1
102
RTVSPropertyOp58
 70
     1
102
RTVSPropertyOp59
 70
     1
102
RTVSPropertyOp60
 70
     1
102
RTVSPropertyOp61
 70
     1
102
RTVSPropertyOp62
 70
     1
  0
XRECORD
  5
546
102
{ACAD_REACTORS
330
545
102
}
330
545
100
AcDbXrecord
280
     1
102
RTVSPost2010Prop28
280
     0
102
RTVSPost2010PropOp28
 70
     1
102
RTVSPost2010Prop29
280
     1
102
RTVSPost2010PropOp29
 70
     1
102
RTVSPost2010Prop30
280
     1
102
RTVSPost2010PropOp30
 70
     1
102
RTVSPost2010Prop31
280
     0
102
RTVSPost2010PropOp31
 70
     1
102
RTVSPost2010Prop32
280
     0
102
RTVSPost2010PropOp32
 70
     1
102
RTVSPost2010Prop33
280
     0
102
RTVSPost2010PropOp33
 70
     1
102
RTVSPost2010Prop34
280
     0
102
RTVSPost2010PropOp34
 70
     1
102
RTVSPost2010Prop35
280
     0
102
RTVSPost2010PropOp35
 70
     1
102
RTVSPost2010Prop36
280
     0
102
RTVSPost2010PropOp36
 70
     1
102
RTVSPost2010Prop37
 90
       50
102
RTVSPost2010PropOp37
 70
     1
102
RTVSPost2010Prop38
140
0.0
102
RTVSPost2010PropOp38
 70
     1
102
RTVSPost2010Prop39
140
1.0
102
RTVSPost2010PropOp39
 70
     1
102
RTVSPost2010Prop40
 90
        0
102
RTVSPost2010PropOp40
 70
     1
102
RTVSPost2010Prop41ColorIndex
 90
       18
102
RTVSPost2010Prop41ColorRGB
 90
        0
102
RTVSPost2010PropOp41
 70
     1
102
RTVSPost2010Prop42
 90
       50
102
RTVSPost2010PropOp42
 70
     1
102
RTVSPost2010Prop43
 90
        3
102
RTVSPost2010PropOp43
 70
     1
102
RTVSPost2010Prop44ColorIndex
 90
        5
102
RTVSPost2010Prop44ColorRGB
 90
      255
102
RTVSPost2010PropOp44
 70
     1
102
RTVSPost2010Prop45
280
     0
102
RTVSPost2010PropOp45
 70
     1
102
RTVSPost2010Prop46
 90
       50
102
RTVSPost2010PropOp46
 70
     1
102
RTVSPost2010Prop47
 90
       50
102
RTVSPost2010PropOp47
 70
     1
102
RTVSPost2010Prop48
 90
       50
102
RTVSPost2010PropOp48
 70
     1
102
RTVSPost2010Prop49
280
     0
102
RTVSPost2010PropOp49
 70
     1
102
RTVSPost2010Prop50
 90
       50
102
RTVSPost2010PropOp50
 70
     1
102
RTVSPost2010Prop51ColorIndex
 90
      256
102
RTVSPost2010Prop51ColorRGB
 90
-16777216
102
RTVSPost2010PropOp51
 70
     0
102
RTVSPost2010Prop52
140
1.0
102
RTVSPost2010PropOp52
 70
     0
102
RTVSPost2010Prop53
 90
        2
102
RTVSPost2010PropOp53
 70
     1
102
RTVSPost2010Prop54
  1
strokes_ogs.tif
102
RTVSPost2010PropOp54
 70
     1
102
RTVSPost2010Prop55
280
     0
102
RTVSPost2010PropOp55
 70
     1
102
RTVSPost2010Prop56
140
1.0
102
RTVSPost2010PropOp56
 70
     1
102
RTVSPost2010Prop57
140
1.0
102
RTVSPost2010PropOp57
 70
     1
102
RTVSPropertyOp0
 70
     1
102
RTVSPropertyOp1
 70
     1
102
RTVSPropertyOp2
 70
     1
102
RTVSPropertyOp3
 70
     1
102
RTVSPropertyOp4
 70
     1
102
RTVSPropertyOp5
 70
     1
102
RTVSPropertyOp6
 70
     1
102
RTVSPropertyOp7
 70
     1
102
RTVSPropertyOp8
 70
     1
102
RTVSPropertyOp9
 70
     1
102
RTVSPropertyOp10
 70
     1
102
RTVSPropertyOp11
 70
     1
102
RTVSPropertyOp12
 70
     1
102
RTVSPropertyOp13
 70
     1
102
RTVSPropertyOp14
 70
     1
102
RTVSPropertyOp15
 70
     1
102
RTVSPropertyOp16
 70
     1
102
RTVSPropertyOp17
 70
     1
102
RTVSPropertyOp18
 70
     1
102
RTVSPropertyOp19
 70
     1
102
RTVSPropertyOp20
 70
     1
102
RTVSPropertyOp21
 70
     1
102
RTVSPropertyOp22
 70
     1
102
RTVSPropertyOp23
 70
     1
102
RTVSPropertyOp24
 70
     1
102
RTVSPropertyOp25
 70
     1
102
RTVSPropertyOp26
 70
     1
102
RTVSPropertyOp27
 70
     1
102
RTVSPropertyOp28
 70
     1
102
RTVSPropertyOp29
 70
     1
102
RTVSPropertyOp30
 70
     1
102
RTVSPropertyOp31
 70
     1
102
RTVSPropertyOp32
 70
     1
102
RTVSPropertyOp33
 70
     1
102
RTVSPropertyOp34
 70
     1
102
RTVSPropertyOp35
 70
     1
102
RTVSPropertyOp36
 70
     1
102
RTVSPropertyOp37
 70
     1
102
RTVSPropertyOp38
 70
     1
102
RTVSPropertyOp39
 70
     1
102
RTVSPropertyOp40
 70
     1
102
RTVSPropertyOp41
 70
     1
102
RTVSPropertyOp42
 70
     1
102
RTVSPropertyOp43
 70
     1
102
RTVSPropertyOp44
 70
     1
102
RTVSPropertyOp45
 70
     1
102
RTVSPropertyOp46
 70
     1
102
RTVSPropertyOp47
 70
     1
102
RTVSPropertyOp48
 70
     1
102
RTVSPropertyOp49
 70
     1
102
RTVSPropertyOp50
 70
     1
102
RTVSPropertyOp51
 70
     0
102
RTVSPropertyOp52
 70
     0
102
RTVSPropertyOp53
 70
     1
102
RTVSPropertyOp54
 70
     1
102
RTVSPropertyOp55
 70
     1
102
RTVSPropertyOp56
 70
     1
102
RTVSPropertyOp57
 70
     1
102
RTVSPropertyOp58
 70
     1
102
RTVSPropertyOp59
 70
     1
102
RTVSPropertyOp60
 70
     1
102
RTVSPropertyOp61
 70
     1
102
RTVSPropertyOp62
 70
     1
  0
XRECORD
  5
54A
102
{ACAD_REACTORS
330
549
102
}
330
549
100
AcDbXrecord
280
     1
102
RTVSPost2010Prop28
280
     0
102
RTVSPost2010PropOp28
 70
     1
102
RTVSPost2010Prop29
280
     1
102
RTVSPost2010PropOp29
 70
     1
102
RTVSPost2010Prop30
280
     1
102
RTVSPost2010PropOp30
 70
     1
102
RTVSPost2010Prop31
280
     0
102
RTVSPost2010PropOp31
 70
     1
102
RTVSPost2010Prop32
280
     0
102
RTVSPost2010PropOp32
 70
     1
102
RTVSPost2010Prop33
280
     0
102
RTVSPost2010PropOp33
 70
     1
102
RTVSPost2010Prop34
280
     0
102
RTVSPost2010PropOp34
 70
     1
102
RTVSPost2010Prop35
280
     0
102
RTVSPost2010PropOp35
 70
     1
102
RTVSPost2010Prop36
280
     0
102
RTVSPost2010PropOp36
 70
     1
102
RTVSPost2010Prop37
 90
       50
102
RTVSPost2010PropOp37
 70
     1
102
RTVSPost2010Prop38
140
0.0
102
RTVSPost2010PropOp38
 70
     1
102
RTVSPost2010Prop39
140
1.0
102
RTVSPost2010PropOp39
 70
     1
102
RTVSPost2010Prop40
 90
        0
102
RTVSPost2010PropOp40
 70
     1
102
RTVSPost2010Prop41ColorIndex
 90
       18
102
RTVSPost2010Prop41ColorRGB
 90
        0
102
RTVSPost2010PropOp41
 70
     1
102
RTVSPost2010Prop42
 90
       50
102
RTVSPost2010PropOp42
 70
     1
102
RTVSPost2010Prop43
 90
        3
102
RTVSPost2010PropOp43
 70
     1
102
RTVSPost2010Prop44ColorIndex
 90
        5
102
RTVSPost2010Prop44ColorRGB
 90
      255
102
RTVSPost2010PropOp44
 70
     1
102
RTVSPost2010Prop45
280
     0
102
RTVSPost2010PropOp45
 70
     1
102
RTVSPost2010Prop46
 90
       50
102
RTVSPost2010PropOp46
 70
     1
102
RTVSPost2010Prop47
 90
       50
102
RTVSPost2010PropOp47
 70
     1
102
RTVSPost2010Prop48
 90
       50
102
RTVSPost2010PropOp48
 70
     1
102
RTVSPost2010Prop49
280
     0
102
RTVSPost2010PropOp49
 70
     1
102
RTVSPost2010Prop50
 90
       50
102
RTVSPost2010PropOp50
 70
     1
102
RTVSPost2010Prop51ColorIndex
 90
      256
102
RTVSPost2010Prop51ColorRGB
 90
-16777216
102
RTVSPost2010PropOp51
 70
     0
102
RTVSPost2010Prop52
140
1.0
102
RTVSPost2010PropOp52
 70
     0
102
RTVSPost2010Prop53
 90
        2
102
RTVSPost2010PropOp53
 70
     1
102
RTVSPost2010Prop54
  1
strokes_ogs.tif
102
RTVSPost2010PropOp54
 70
     1
102
RTVSPost2010Prop55
280
     0
102
RTVSPost2010PropOp55
 70
     1
102
RTVSPost2010Prop56
140
1.0
102
RTVSPost2010PropOp56
 70
     1
102
RTVSPost2010Prop57
140
1.0
102
RTVSPost2010PropOp57
 70
     1
102
RTVSPropertyOp0
 70
     1
102
RTVSPropertyOp1
 70
     1
102
RTVSPropertyOp2
 70
     1
102
RTVSPropertyOp3
 70
     1
102
RTVSPropertyOp4
 70
     1
102
RTVSPropertyOp5
 70
     1
102
RTVSPropertyOp6
 70
     1
102
RTVSPropertyOp7
 70
     1
102
RTVSPropertyOp8
 70
     1
102
RTVSPropertyOp9
 70
     1
102
RTVSPropertyOp10
 70
     1
102
RTVSPropertyOp11
 70
     1
102
RTVSPropertyOp12
 70
     1
102
RTVSPropertyOp13
 70
     1
102
RTVSPropertyOp14
 70
     1
102
RTVSPropertyOp15
 70
     1
102
RTVSPropertyOp16
 70
     1
102
RTVSPropertyOp17
 70
     1
102
RTVSPropertyOp18
 70
     1
102
RTVSPropertyOp19
 70
     1
102
RTVSPropertyOp20
 70
     1
102
RTVSPropertyOp21
 70
     1
102
RTVSPropertyOp22
 70
     1
102
RTVSPropertyOp23
 70
     1
102
RTVSPropertyOp24
 70
     1
102
RTVSPropertyOp25
 70
     1
102
RTVSPropertyOp26
 70
     1
102
RTVSPropertyOp27
 70
     1
102
RTVSPropertyOp28
 70
     1
102
RTVSPropertyOp29
 70
     1
102
RTVSPropertyOp30
 70
     1
102
RTVSPropertyOp31
 70
     1
102
RTVSPropertyOp32
 70
     1
102
RTVSPropertyOp33
 70
     1
102
RTVSPropertyOp34
 70
     1
102
RTVSPropertyOp35
 70
     1
102
RTVSPropertyOp36
 70
     1
102
RTVSPropertyOp37
 70
     1
102
RTVSPropertyOp38
 70
     1
102
RTVSPropertyOp39
 70
     1
102
RTVSPropertyOp40
 70
     1
102
RTVSPropertyOp41
 70
     1
102
RTVSPropertyOp42
 70
     1
102
RTVSPropertyOp43
 70
     1
102
RTVSPropertyOp44
 70
     1
102
RTVSPropertyOp45
 70
     1
102
RTVSPropertyOp46
 70
     1
102
RTVSPropertyOp47
 70
     1
102
RTVSPropertyOp48
 70
     1
102
RTVSPropertyOp49
 70
     1
102
RTVSPropertyOp50
 70
     1
102
RTVSPropertyOp51
 70
     0
102
RTVSPropertyOp52
 70
     0
102
RTVSPropertyOp53
 70
     1
102
RTVSPropertyOp54
 70
     1
102
RTVSPropertyOp55
 70
     1
102
RTVSPropertyOp56
 70
     1
102
RTVSPropertyOp57
 70
     1
102
RTVSPropertyOp58
 70
     1
102
RTVSPropertyOp59
 70
     1
102
RTVSPropertyOp60
 70
     1
102
RTVSPropertyOp61
 70
     1
102
RTVSPropertyOp62
 70
     1
  0
XRECORD
  5
55A
102
{ACAD_REACTORS
330
559
102
}
330
559
100
AcDbXrecord
280
     1
102
RTVSPost2010Prop28
280
     0
102
RTVSPost2010PropOp28
 70
     1
102
RTVSPost2010Prop29
280
     1
102
RTVSPost2010PropOp29
 70
     1
102
RTVSPost2010Prop30
280
     1
102
RTVSPost2010PropOp30
 70
     1
102
RTVSPost2010Prop31
280
     0
102
RTVSPost2010PropOp31
 70
     1
102
RTVSPost2010Prop32
280
     0
102
RTVSPost2010PropOp32
 70
     1
102
RTVSPost2010Prop33
280
     0
102
RTVSPost2010PropOp33
 70
     1
102
RTVSPost2010Prop34
280
     0
102
RTVSPost2010PropOp34
 70
     1
102
RTVSPost2010Prop35
280
     0
102
RTVSPost2010PropOp35
 70
     1
102
RTVSPost2010Prop36
280
     0
102
RTVSPost2010PropOp36
 70
     1
102
RTVSPost2010Prop37
 90
       50
102
RTVSPost2010PropOp37
 70
     1
102
RTVSPost2010Prop38
140
0.0
102
RTVSPost2010PropOp38
 70
     1
102
RTVSPost2010Prop39
140
1.0
102
RTVSPost2010PropOp39
 70
     1
102
RTVSPost2010Prop40
 90
        0
102
RTVSPost2010PropOp40
 70
     1
102
RTVSPost2010Prop41ColorIndex
 90
       18
102
RTVSPost2010Prop41ColorRGB
 90
        0
102
RTVSPost2010PropOp41
 70
     1
102
RTVSPost2010Prop42
 90
       50
102
RTVSPost2010PropOp42
 70
     1
102
RTVSPost2010Prop43
 90
        3
102
RTVSPost2010PropOp43
 70
     1
102
RTVSPost2010Prop44ColorIndex
 90
        5
102
RTVSPost2010Prop44ColorRGB
 90
      255
102
RTVSPost2010PropOp44
 70
     1
102
RTVSPost2010Prop45
280
     0
102
RTVSPost2010PropOp45
 70
     1
102
RTVSPost2010Prop46
 90
       50
102
RTVSPost2010PropOp46
 70
     1
102
RTVSPost2010Prop47
 90
       50
102
RTVSPost2010PropOp47
 70
     1
102
RTVSPost2010Prop48
 90
       50
102
RTVSPost2010PropOp48
 70
     1
102
RTVSPost2010Prop49
280
     0
102
RTVSPost2010PropOp49
 70
     1
102
RTVSPost2010Prop50
 90
       50
102
RTVSPost2010PropOp50
 70
     1
102
RTVSPost2010Prop51ColorIndex
 90
      256
102
RTVSPost2010Prop51ColorRGB
 90
-16777216
102
RTVSPost2010PropOp51
 70
     0
102
RTVSPost2010Prop52
140
1.0
102
RTVSPost2010PropOp52
 70
     0
102
RTVSPost2010Prop53
 90
        2
102
RTVSPost2010PropOp53
 70
     1
102
RTVSPost2010Prop54
  1
strokes_ogs.tif
102
RTVSPost2010PropOp54
 70
     1
102
RTVSPost2010Prop55
280
     0
102
RTVSPost2010PropOp55
 70
     1
102
RTVSPost2010Prop56
140
1.0
102
RTVSPost2010PropOp56
 70
     1
102
RTVSPost2010Prop57
140
1.0
102
RTVSPost2010PropOp57
 70
     1
102
RTVSPropertyOp0
 70
     0
102
RTVSPropertyOp1
 70
     0
102
RTVSPropertyOp2
 70
     0
102
RTVSPropertyOp3
 70
     0
102
RTVSPropertyOp4
 70
     0
102
RTVSPropertyOp5
 70
     0
102
RTVSPropertyOp6
 70
     0
102
RTVSPropertyOp7
 70
     0
102
RTVSPropertyOp8
 70
     0
102
RTVSPropertyOp9
 70
     0
102
RTVSPropertyOp10
 70
     0
102
RTVSPropertyOp11
 70
     0
102
RTVSPropertyOp12
 70
     0
102
RTVSPropertyOp13
 70
     0
102
RTVSPropertyOp14
 70
     2
102
RTVSPropertyOp15
 70
     0
102
RTVSPropertyOp16
 70
     0
102
RTVSPropertyOp17
 70
     0
102
RTVSPropertyOp18
 70
     0
102
RTVSPropertyOp19
 70
     0
102
RTVSPropertyOp20
 70
     0
102
RTVSPropertyOp21
 70
     0
102
RTVSPropertyOp22
 70
     0
102
RTVSPropertyOp23
 70
     0
102
RTVSPropertyOp24
 70
     0
102
RTVSPropertyOp25
 70
     0
102
RTVSPropertyOp26
 70
     0
102
RTVSPropertyOp27
 70
     0
102
RTVSPropertyOp28
 70
     1
102
RTVSPropertyOp29
 70
     1
102
RTVSPropertyOp30
 70
     1
102
RTVSPropertyOp31
 70
     1
102
RTVSPropertyOp32
 70
     1
102
RTVSPropertyOp33
 70
     1
102
RTVSPropertyOp34
 70
     1
102
RTVSPropertyOp35
 70
     1
102
RTVSPropertyOp36
 70
     1
102
RTVSPropertyOp37
 70
     1
102
RTVSPropertyOp38
 70
     1
102
RTVSPropertyOp39
 70
     1
102
RTVSPropertyOp40
 70
     1
102
RTVSPropertyOp41
 70
     1
102
RTVSPropertyOp42
 70
     1
102
RTVSPropertyOp43
 70
     1
102
RTVSPropertyOp44
 70
     1
102
RTVSPropertyOp45
 70
     1
102
RTVSPropertyOp46
 70
     1
102
RTVSPropertyOp47
 70
     1
102
RTVSPropertyOp48
 70
     1
102
RTVSPropertyOp49
 70
     1
102
RTVSPropertyOp50
 70
     1
102
RTVSPropertyOp51
 70
     0
102
RTVSPropertyOp52
 70
     0
102
RTVSPropertyOp53
 70
     1
102
RTVSPropertyOp54
 70
     1
102
RTVSPropertyOp55
 70
     1
102
RTVSPropertyOp56
 70
     1
102
RTVSPropertyOp57
 70
     1
102
RTVSPropertyOp58
 70
     1
102
RTVSPropertyOp59
 70
     1
102
RTVSPropertyOp60
 70
     1
102
RTVSPropertyOp61
 70
     1
102
RTVSPropertyOp62
 70
     1
  0
XRECORD
  5
552
102
{ACAD_REACTORS
330
551
102
}
330
551
100
AcDbXrecord
280
     1
102
RTVSPost2010Prop28
280
     0
102
RTVSPost2010PropOp28
 70
     1
102
RTVSPost2010Prop29
280
     1
102
RTVSPost2010PropOp29
 70
     1
102
RTVSPost2010Prop30
280
     1
102
RTVSPost2010PropOp30
 70
     1
102
RTVSPost2010Prop31
280
     0
102
RTVSPost2010PropOp31
 70
     1
102
RTVSPost2010Prop32
280
     0
102
RTVSPost2010PropOp32
 70
     1
102
RTVSPost2010Prop33
280
     0
102
RTVSPost2010PropOp33
 70
     1
102
RTVSPost2010Prop34
280
     0
102
RTVSPost2010PropOp34
 70
     1
102
RTVSPost2010Prop35
280
     0
102
RTVSPost2010PropOp35
 70
     1
102
RTVSPost2010Prop36
280
     0
102
RTVSPost2010PropOp36
 70
     1
102
RTVSPost2010Prop37
 90
       50
102
RTVSPost2010PropOp37
 70
     1
102
RTVSPost2010Prop38
140
0.0
102
RTVSPost2010PropOp38
 70
     1
102
RTVSPost2010Prop39
140
1.0
102
RTVSPost2010PropOp39
 70
     1
102
RTVSPost2010Prop40
 90
        0
102
RTVSPost2010PropOp40
 70
     1
102
RTVSPost2010Prop41ColorIndex
 90
       18
102
RTVSPost2010Prop41ColorRGB
 90
        0
102
RTVSPost2010PropOp41
 70
     1
102
RTVSPost2010Prop42
 90
       50
102
RTVSPost2010PropOp42
 70
     1
102
RTVSPost2010Prop43
 90
        3
102
RTVSPost2010PropOp43
 70
     1
102
RTVSPost2010Prop44ColorIndex
 90
        5
102
RTVSPost2010Prop44ColorRGB
 90
      255
102
RTVSPost2010PropOp44
 70
     1
102
RTVSPost2010Prop45
280
     0
102
RTVSPost2010PropOp45
 70
     1
102
RTVSPost2010Prop46
 90
       50
102
RTVSPost2010PropOp46
 70
     1
102
RTVSPost2010Prop47
 90
       50
102
RTVSPost2010PropOp47
 70
     1
102
RTVSPost2010Prop48
 90
       50
102
RTVSPost2010PropOp48
 70
     1
102
RTVSPost2010Prop49
280
     0
102
RTVSPost2010PropOp49
 70
     1
102
RTVSPost2010Prop50
 90
       50
102
RTVSPost2010PropOp50
 70
     1
102
RTVSPost2010Prop51ColorIndex
 90
      256
102
RTVSPost2010Prop51ColorRGB
 90
-16777216
102
RTVSPost2010PropOp51
 70
     0
102
RTVSPost2010Prop52
140
1.0
102
RTVSPost2010PropOp52
 70
     0
102
RTVSPost2010Prop53
 90
        2
102
RTVSPost2010PropOp53
 70
     1
102
RTVSPost2010Prop54
  1
strokes_ogs.tif
102
RTVSPost2010PropOp54
 70
     1
102
RTVSPost2010Prop55
280
     0
102
RTVSPost2010PropOp55
 70
     1
102
RTVSPost2010Prop56
140
1.0
102
RTVSPost2010PropOp56
 70
     1
102
RTVSPost2010Prop57
140
1.0
102
RTVSPost2010PropOp57
 70
     1
102
RTVSPropertyOp0
 70
     1
102
RTVSPropertyOp1
 70
     1
102
RTVSPropertyOp2
 70
     1
102
RTVSPropertyOp3
 70
     1
102
RTVSPropertyOp4
 70
     1
102
RTVSPropertyOp5
 70
     1
102
RTVSPropertyOp6
 70
     1
102
RTVSPropertyOp7
 70
     1
102
RTVSPropertyOp8
 70
     1
102
RTVSPropertyOp9
 70
     1
102
RTVSPropertyOp10
 70
     1
102
RTVSPropertyOp11
 70
     1
102
RTVSPropertyOp12
 70
     1
102
RTVSPropertyOp13
 70
     1
102
RTVSPropertyOp14
 70
     1
102
RTVSPropertyOp15
 70
     1
102
RTVSPropertyOp16
 70
     1
102
RTVSPropertyOp17
 70
     1
102
RTVSPropertyOp18
 70
     1
102
RTVSPropertyOp19
 70
     1
102
RTVSPropertyOp20
 70
     1
102
RTVSPropertyOp21
 70
     1
102
RTVSPropertyOp22
 70
     1
102
RTVSPropertyOp23
 70
     1
102
RTVSPropertyOp24
 70
     1
102
RTVSPropertyOp25
 70
     1
102
RTVSPropertyOp26
 70
     1
102
RTVSPropertyOp27
 70
     1
102
RTVSPropertyOp28
 70
     1
102
RTVSPropertyOp29
 70
     1
102
RTVSPropertyOp30
 70
     1
102
RTVSPropertyOp31
 70
     1
102
RTVSPropertyOp32
 70
     1
102
RTVSPropertyOp33
 70
     1
102
RTVSPropertyOp34
 70
     1
102
RTVSPropertyOp35
 70
     1
102
RTVSPropertyOp36
 70
     1
102
RTVSPropertyOp37
 70
     1
102
RTVSPropertyOp38
 70
     1
102
RTVSPropertyOp39
 70
     1
102
RTVSPropertyOp40
 70
     1
102
RTVSPropertyOp41
 70
     1
102
RTVSPropertyOp42
 70
     1
102
RTVSPropertyOp43
 70
     1
102
RTVSPropertyOp44
 70
     1
102
RTVSPropertyOp45
 70
     1
102
RTVSPropertyOp46
 70
     1
102
RTVSPropertyOp47
 70
     1
102
RTVSPropertyOp48
 70
     1
102
RTVSPropertyOp49
 70
     1
102
RTVSPropertyOp50
 70
     1
102
RTVSPropertyOp51
 70
     0
102
RTVSPropertyOp52
 70
     0
102
RTVSPropertyOp53
 70
     1
102
RTVSPropertyOp54
 70
     1
102
RTVSPropertyOp55
 70
     1
102
RTVSPropertyOp56
 70
     1
102
RTVSPropertyOp57
 70
     1
102
RTVSPropertyOp58
 70
     1
102
RTVSPropertyOp59
 70
     1
102
RTVSPropertyOp60
 70
     1
102
RTVSPropertyOp61
 70
     1
102
RTVSPropertyOp62
 70
     1
  0
XRECORD
  5
536
102
{ACAD_REACTORS
330
535
102
}
330
535
100
AcDbXrecord
280
     1
102
RTVSPost2010Prop28
280
     0
102
RTVSPost2010PropOp28
 70
     1
102
RTVSPost2010Prop29
280
     1
102
RTVSPost2010PropOp29
 70
     1
102
RTVSPost2010Prop30
280
     1
102
RTVSPost2010PropOp30
 70
     1
102
RTVSPost2010Prop31
280
     0
102
RTVSPost2010PropOp31
 70
     1
102
RTVSPost2010Prop32
280
     0
102
RTVSPost2010PropOp32
 70
     1
102
RTVSPost2010Prop33
280
     0
102
RTVSPost2010PropOp33
 70
     1
102
RTVSPost2010Prop34
280
     0
102
RTVSPost2010PropOp34
 70
     1
102
RTVSPost2010Prop35
280
     0
102
RTVSPost2010PropOp35
 70
     1
102
RTVSPost2010Prop36
280
     0
102
RTVSPost2010PropOp36
 70
     1
102
RTVSPost2010Prop37
 90
       50
102
RTVSPost2010PropOp37
 70
     1
102
RTVSPost2010Prop38
140
0.0
102
RTVSPost2010PropOp38
 70
     1
102
RTVSPost2010Prop39
140
1.0
102
RTVSPost2010PropOp39
 70
     1
102
RTVSPost2010Prop40
 90
        0
102
RTVSPost2010PropOp40
 70
     1
102
RTVSPost2010Prop41ColorIndex
 90
       18
102
RTVSPost2010Prop41ColorRGB
 90
        0
102
RTVSPost2010PropOp41
 70
     1
102
RTVSPost2010Prop42
 90
       50
102
RTVSPost2010PropOp42
 70
     1
102
RTVSPost2010Prop43
 90
        3
102
RTVSPost2010PropOp43
 70
     1
102
RTVSPost2010Prop44ColorIndex
 90
        5
102
RTVSPost2010Prop44ColorRGB
 90
      255
102
RTVSPost2010PropOp44
 70
     1
102
RTVSPost2010Prop45
280
     0
102
RTVSPost2010PropOp45
 70
     1
102
RTVSPost2010Prop46
 90
       50
102
RTVSPost2010PropOp46
 70
     1
102
RTVSPost2010Prop47
 90
       50
102
RTVSPost2010PropOp47
 70
     1
102
RTVSPost2010Prop48
 90
       50
102
RTVSPost2010PropOp48
 70
     1
102
RTVSPost2010Prop49
280
     0
102
RTVSPost2010PropOp49
 70
     1
102
RTVSPost2010Prop50
 90
       50
102
RTVSPost2010PropOp50
 70
     1
102
RTVSPost2010Prop51ColorIndex
 90
      256
102
RTVSPost2010Prop51ColorRGB
 90
-16777216
102
RTVSPost2010PropOp51
 70
     0
102
RTVSPost2010Prop52
140
1.0
102
RTVSPost2010PropOp52
 70
     0
102
RTVSPost2010Prop53
 90
        2
102
RTVSPost2010PropOp53
 70
     1
102
RTVSPost2010Prop54
  1
strokes_ogs.tif
102
RTVSPost2010PropOp54
 70
     1
102
RTVSPost2010Prop55
280
     0
102
RTVSPost2010PropOp55
 70
     1
102
RTVSPost2010Prop56
140
1.0
102
RTVSPost2010PropOp56
 70
     1
102
RTVSPost2010Prop57
140
1.0
102
RTVSPost2010PropOp57
 70
     1
102
RTVSPropertyOp0
 70
     1
102
RTVSPropertyOp1
 70
     1
102
RTVSPropertyOp2
 70
     1
102
RTVSPropertyOp3
 70
     1
102
RTVSPropertyOp4
 70
     1
102
RTVSPropertyOp5
 70
     1
102
RTVSPropertyOp6
 70
     1
102
RTVSPropertyOp7
 70
     1
102
RTVSPropertyOp8
 70
     1
102
RTVSPropertyOp9
 70
     1
102
RTVSPropertyOp10
 70
     1
102
RTVSPropertyOp11
 70
     1
102
RTVSPropertyOp12
 70
     1
102
RTVSPropertyOp13
 70
     1
102
RTVSPropertyOp14
 70
     1
102
RTVSPropertyOp15
 70
     1
102
RTVSPropertyOp16
 70
     1
102
RTVSPropertyOp17
 70
     1
102
RTVSPropertyOp18
 70
     1
102
RTVSPropertyOp19
 70
     1
102
RTVSPropertyOp20
 70
     1
102
RTVSPropertyOp21
 70
     1
102
RTVSPropertyOp22
 70
     1
102
RTVSPropertyOp23
 70
     1
102
RTVSPropertyOp24
 70
     1
102
RTVSPropertyOp25
 70
     1
102
RTVSPropertyOp26
 70
     1
102
RTVSPropertyOp27
 70
     1
102
RTVSPropertyOp28
 70
     1
102
RTVSPropertyOp29
 70
     1
102
RTVSPropertyOp30
 70
     1
102
RTVSPropertyOp31
 70
     1
102
RTVSPropertyOp32
 70
     1
102
RTVSPropertyOp33
 70
     1
102
RTVSPropertyOp34
 70
     1
102
RTVSPropertyOp35
 70
     1
102
RTVSPropertyOp36
 70
     1
102
RTVSPropertyOp37
 70
     1
102
RTVSPropertyOp38
 70
     1
102
RTVSPropertyOp39
 70
     1
102
RTVSPropertyOp40
 70
     1
102
RTVSPropertyOp41
 70
     1
102
RTVSPropertyOp42
 70
     1
102
RTVSPropertyOp43
 70
     1
102
RTVSPropertyOp44
 70
     1
102
RTVSPropertyOp45
 70
     1
102
RTVSPropertyOp46
 70
     1
102
RTVSPropertyOp47
 70
     1
102
RTVSPropertyOp48
 70
     1
102
RTVSPropertyOp49
 70
     1
102
RTVSPropertyOp50
 70
     1
102
RTVSPropertyOp51
 70
     0
102
RTVSPropertyOp52
 70
     0
102
RTVSPropertyOp53
 70
     1
102
RTVSPropertyOp54
 70
     1
102
RTVSPropertyOp55
 70
     1
102
RTVSPropertyOp56
 70
     1
102
RTVSPropertyOp57
 70
     1
102
RTVSPropertyOp58
 70
     1
102
RTVSPropertyOp59
 70
     1
102
RTVSPropertyOp60
 70
     1
102
RTVSPropertyOp61
 70
     1
102
RTVSPropertyOp62
 70
     1
  0
XRECORD
  5
538
102
{ACAD_REACTORS
330
537
102
}
330
537
100
AcDbXrecord
280
     1
102
RTVSPost2010Prop28
280
     0
102
RTVSPost2010PropOp28
 70
     1
102
RTVSPost2010Prop29
280
     1
102
RTVSPost2010PropOp29
 70
     1
102
RTVSPost2010Prop30
280
     1
102
RTVSPost2010PropOp30
 70
     1
102
RTVSPost2010Prop31
280
     0
102
RTVSPost2010PropOp31
 70
     1
102
RTVSPost2010Prop32
280
     0
102
RTVSPost2010PropOp32
 70
     1
102
RTVSPost2010Prop33
280
     0
102
RTVSPost2010PropOp33
 70
     1
102
RTVSPost2010Prop34
280
     0
102
RTVSPost2010PropOp34
 70
     1
102
RTVSPost2010Prop35
280
     0
102
RTVSPost2010PropOp35
 70
     1
102
RTVSPost2010Prop36
280
     0
102
RTVSPost2010PropOp36
 70
     1
102
RTVSPost2010Prop37
 90
       50
102
RTVSPost2010PropOp37
 70
     1
102
RTVSPost2010Prop38
140
0.0
102
RTVSPost2010PropOp38
 70
     1
102
RTVSPost2010Prop39
140
1.0
102
RTVSPost2010PropOp39
 70
     1
102
RTVSPost2010Prop40
 90
        0
102
RTVSPost2010PropOp40
 70
     1
102
RTVSPost2010Prop41ColorIndex
 90
       18
102
RTVSPost2010Prop41ColorRGB
 90
        0
102
RTVSPost2010PropOp41
 70
     1
102
RTVSPost2010Prop42
 90
       50
102
RTVSPost2010PropOp42
 70
     1
102
RTVSPost2010Prop43
 90
        3
102
RTVSPost2010PropOp43
 70
     1
102
RTVSPost2010Prop44ColorIndex
 90
        5
102
RTVSPost2010Prop44ColorRGB
 90
      255
102
RTVSPost2010PropOp44
 70
     1
102
RTVSPost2010Prop45
280
     0
102
RTVSPost2010PropOp45
 70
     1
102
RTVSPost2010Prop46
 90
       50
102
RTVSPost2010PropOp46
 70
     1
102
RTVSPost2010Prop47
 90
       50
102
RTVSPost2010PropOp47
 70
     1
102
RTVSPost2010Prop48
 90
       50
102
RTVSPost2010PropOp48
 70
     1
102
RTVSPost2010Prop49
280
     0
102
RTVSPost2010PropOp49
 70
     1
102
RTVSPost2010Prop50
 90
       50
102
RTVSPost2010PropOp50
 70
     1
102
RTVSPost2010Prop51ColorIndex
 90
      256
102
RTVSPost2010Prop51ColorRGB
 90
-16777216
102
RTVSPost2010PropOp51
 70
     0
102
RTVSPost2010Prop52
140
1.0
102
RTVSPost2010PropOp52
 70
     0
102
RTVSPost2010Prop53
 90
        2
102
RTVSPost2010PropOp53
 70
     1
102
RTVSPost2010Prop54
  1
strokes_ogs.tif
102
RTVSPost2010PropOp54
 70
     1
102
RTVSPost2010Prop55
280
     0
102
RTVSPost2010PropOp55
 70
     1
102
RTVSPost2010Prop56
140
1.0
102
RTVSPost2010PropOp56
 70
     1
102
RTVSPost2010Prop57
140
1.0
102
RTVSPost2010PropOp57
 70
     1
102
RTVSPropertyOp0
 70
     1
102
RTVSPropertyOp1
 70
     1
102
RTVSPropertyOp2
 70
     1
102
RTVSPropertyOp3
 70
     1
102
RTVSPropertyOp4
 70
     1
102
RTVSPropertyOp5
 70
     1
102
RTVSPropertyOp6
 70
     1
102
RTVSPropertyOp7
 70
     1
102
RTVSPropertyOp8
 70
     1
102
RTVSPropertyOp9
 70
     1
102
RTVSPropertyOp10
 70
     1
102
RTVSPropertyOp11
 70
     1
102
RTVSPropertyOp12
 70
     1
102
RTVSPropertyOp13
 70
     1
102
RTVSPropertyOp14
 70
     1
102
RTVSPropertyOp15
 70
     1
102
RTVSPropertyOp16
 70
     1
102
RTVSPropertyOp17
 70
     1
102
RTVSPropertyOp18
 70
     1
102
RTVSPropertyOp19
 70
     1
102
RTVSPropertyOp20
 70
     1
102
RTVSPropertyOp21
 70
     1
102
RTVSPropertyOp22
 70
     1
102
RTVSPropertyOp23
 70
     1
102
RTVSPropertyOp24
 70
     1
102
RTVSPropertyOp25
 70
     1
102
RTVSPropertyOp26
 70
     1
102
RTVSPropertyOp27
 70
     1
102
RTVSPropertyOp28
 70
     1
102
RTVSPropertyOp29
 70
     1
102
RTVSPropertyOp30
 70
     1
102
RTVSPropertyOp31
 70
     1
102
RTVSPropertyOp32
 70
     1
102
RTVSPropertyOp33
 70
     1
102
RTVSPropertyOp34
 70
     1
102
RTVSPropertyOp35
 70
     1
102
RTVSPropertyOp36
 70
     1
102
RTVSPropertyOp37
 70
     1
102
RTVSPropertyOp38
 70
     1
102
RTVSPropertyOp39
 70
     1
102
RTVSPropertyOp40
 70
     1
102
RTVSPropertyOp41
 70
     1
102
RTVSPropertyOp42
 70
     1
102
RTVSPropertyOp43
 70
     1
102
RTVSPropertyOp44
 70
     1
102
RTVSPropertyOp45
 70
     1
102
RTVSPropertyOp46
 70
     1
102
RTVSPropertyOp47
 70
     1
102
RTVSPropertyOp48
 70
     1
102
RTVSPropertyOp49
 70
     1
102
RTVSPropertyOp50
 70
     1
102
RTVSPropertyOp51
 70
     0
102
RTVSPropertyOp52
 70
     0
102
RTVSPropertyOp53
 70
     1
102
RTVSPropertyOp54
 70
     1
102
RTVSPropertyOp55
 70
     1
102
RTVSPropertyOp56
 70
     1
102
RTVSPropertyOp57
 70
     1
102
RTVSPropertyOp58
 70
     1
102
RTVSPropertyOp59
 70
     1
102
RTVSPropertyOp60
 70
     1
102
RTVSPropertyOp61
 70
     1
102
RTVSPropertyOp62
 70
     1
  0
XRECORD
  5
53A
102
{ACAD_REACTORS
330
539
102
}
330
539
100
AcDbXrecord
280
     1
102
RTVSPost2010Prop28
280
     0
102
RTVSPost2010PropOp28
 70
     1
102
RTVSPost2010Prop29
280
     1
102
RTVSPost2010PropOp29
 70
     1
102
RTVSPost2010Prop30
280
     1
102
RTVSPost2010PropOp30
 70
     1
102
RTVSPost2010Prop31
280
     0
102
RTVSPost2010PropOp31
 70
     1
102
RTVSPost2010Prop32
280
     0
102
RTVSPost2010PropOp32
 70
     1
102
RTVSPost2010Prop33
280
     0
102
RTVSPost2010PropOp33
 70
     1
102
RTVSPost2010Prop34
280
     0
102
RTVSPost2010PropOp34
 70
     1
102
RTVSPost2010Prop35
280
     0
102
RTVSPost2010PropOp35
 70
     1
102
RTVSPost2010Prop36
280
     0
102
RTVSPost2010PropOp36
 70
     1
102
RTVSPost2010Prop37
 90
       50
102
RTVSPost2010PropOp37
 70
     1
102
RTVSPost2010Prop38
140
0.0
102
RTVSPost2010PropOp38
 70
     1
102
RTVSPost2010Prop39
140
1.0
102
RTVSPost2010PropOp39
 70
     1
102
RTVSPost2010Prop40
 90
        0
102
RTVSPost2010PropOp40
 70
     1
102
RTVSPost2010Prop41ColorIndex
 90
       18
102
RTVSPost2010Prop41ColorRGB
 90
        0
102
RTVSPost2010PropOp41
 70
     1
102
RTVSPost2010Prop42
 90
       50
102
RTVSPost2010PropOp42
 70
     1
102
RTVSPost2010Prop43
 90
        3
102
RTVSPost2010PropOp43
 70
     1
102
RTVSPost2010Prop44ColorIndex
 90
        5
102
RTVSPost2010Prop44ColorRGB
 90
      255
102
RTVSPost2010PropOp44
 70
     1
102
RTVSPost2010Prop45
280
     0
102
RTVSPost2010PropOp45
 70
     1
102
RTVSPost2010Prop46
 90
       50
102
RTVSPost2010PropOp46
 70
     1
102
RTVSPost2010Prop47
 90
       50
102
RTVSPost2010PropOp47
 70
     1
102
RTVSPost2010Prop48
 90
       50
102
RTVSPost2010PropOp48
 70
     1
102
RTVSPost2010Prop49
280
     0
102
RTVSPost2010PropOp49
 70
     1
102
RTVSPost2010Prop50
 90
       50
102
RTVSPost2010PropOp50
 70
     1
102
RTVSPost2010Prop51ColorIndex
 90
      256
102
RTVSPost2010Prop51ColorRGB
 90
-16777216
102
RTVSPost2010PropOp51
 70
     0
102
RTVSPost2010Prop52
140
1.0
102
RTVSPost2010PropOp52
 70
     0
102
RTVSPost2010Prop53
 90
        2
102
RTVSPost2010PropOp53
 70
     1
102
RTVSPost2010Prop54
  1
strokes_ogs.tif
102
RTVSPost2010PropOp54
 70
     1
102
RTVSPost2010Prop55
280
     0
102
RTVSPost2010PropOp55
 70
     1
102
RTVSPost2010Prop56
140
1.0
102
RTVSPost2010PropOp56
 70
     1
102
RTVSPost2010Prop57
140
1.0
102
RTVSPost2010PropOp57
 70
     1
102
RTVSPropertyOp0
 70
     1
102
RTVSPropertyOp1
 70
     1
102
RTVSPropertyOp2
 70
     1
102
RTVSPropertyOp3
 70
     1
102
RTVSPropertyOp4
 70
     1
102
RTVSPropertyOp5
 70
     1
102
RTVSPropertyOp6
 70
     1
102
RTVSPropertyOp7
 70
     1
102
RTVSPropertyOp8
 70
     1
102
RTVSPropertyOp9
 70
     1
102
RTVSPropertyOp10
 70
     1
102
RTVSPropertyOp11
 70
     1
102
RTVSPropertyOp12
 70
     1
102
RTVSPropertyOp13
 70
     1
102
RTVSPropertyOp14
 70
     1
102
RTVSPropertyOp15
 70
     1
102
RTVSPropertyOp16
 70
     1
102
RTVSPropertyOp17
 70
     1
102
RTVSPropertyOp18
 70
     1
102
RTVSPropertyOp19
 70
     1
102
RTVSPropertyOp20
 70
     1
102
RTVSPropertyOp21
 70
     1
102
RTVSPropertyOp22
 70
     1
102
RTVSPropertyOp23
 70
     1
102
RTVSPropertyOp24
 70
     1
102
RTVSPropertyOp25
 70
     1
102
RTVSPropertyOp26
 70
     1
102
RTVSPropertyOp27
 70
     1
102
RTVSPropertyOp28
 70
     1
102
RTVSPropertyOp29
 70
     1
102
RTVSPropertyOp30
 70
     1
102
RTVSPropertyOp31
 70
     1
102
RTVSPropertyOp32
 70
     1
102
RTVSPropertyOp33
 70
     1
102
RTVSPropertyOp34
 70
     1
102
RTVSPropertyOp35
 70
     1
102
RTVSPropertyOp36
 70
     1
102
RTVSPropertyOp37
 70
     1
102
RTVSPropertyOp38
 70
     1
102
RTVSPropertyOp39
 70
     1
102
RTVSPropertyOp40
 70
     1
102
RTVSPropertyOp41
 70
     1
102
RTVSPropertyOp42
 70
     1
102
RTVSPropertyOp43
 70
     1
102
RTVSPropertyOp44
 70
     1
102
RTVSPropertyOp45
 70
     1
102
RTVSPropertyOp46
 70
     1
102
RTVSPropertyOp47
 70
     1
102
RTVSPropertyOp48
 70
     1
102
RTVSPropertyOp49
 70
     1
102
RTVSPropertyOp50
 70
     1
102
RTVSPropertyOp51
 70
     0
102
RTVSPropertyOp52
 70
     0
102
RTVSPropertyOp53
 70
     1
102
RTVSPropertyOp54
 70
     1
102
RTVSPropertyOp55
 70
     1
102
RTVSPropertyOp56
 70
     1
102
RTVSPropertyOp57
 70
     1
102
RTVSPropertyOp58
 70
     1
102
RTVSPropertyOp59
 70
     1
102
RTVSPropertyOp60
 70
     1
102
RTVSPropertyOp61
 70
     1
102
RTVSPropertyOp62
 70
     1
  0
XRECORD
  5
53C
102
{ACAD_REACTORS
330
53B
102
}
330
53B
100
AcDbXrecord
280
     1
102
RTVSPost2010Prop28
280
     0
102
RTVSPost2010PropOp28
 70
     1
102
RTVSPost2010Prop29
280
     1
102
RTVSPost2010PropOp29
 70
     1
102
RTVSPost2010Prop30
280
     1
102
RTVSPost2010PropOp30
 70
     1
102
RTVSPost2010Prop31
280
     0
102
RTVSPost2010PropOp31
 70
     1
102
RTVSPost2010Prop32
280
     0
102
RTVSPost2010PropOp32
 70
     1
102
RTVSPost2010Prop33
280
     0
102
RTVSPost2010PropOp33
 70
     1
102
RTVSPost2010Prop34
280
     0
102
RTVSPost2010PropOp34
 70
     1
102
RTVSPost2010Prop35
280
     0
102
RTVSPost2010PropOp35
 70
     1
102
RTVSPost2010Prop36
280
     0
102
RTVSPost2010PropOp36
 70
     1
102
RTVSPost2010Prop37
 90
       50
102
RTVSPost2010PropOp37
 70
     1
102
RTVSPost2010Prop38
140
0.0
102
RTVSPost2010PropOp38
 70
     1
102
RTVSPost2010Prop39
140
1.0
102
RTVSPost2010PropOp39
 70
     1
102
RTVSPost2010Prop40
 90
        0
102
RTVSPost2010PropOp40
 70
     1
102
RTVSPost2010Prop41ColorIndex
 90
       18
102
RTVSPost2010Prop41ColorRGB
 90
        0
102
RTVSPost2010PropOp41
 70
     1
102
RTVSPost2010Prop42
 90
       50
102
RTVSPost2010PropOp42
 70
     1
102
RTVSPost2010Prop43
 90
        3
102
RTVSPost2010PropOp43
 70
     1
102
RTVSPost2010Prop44ColorIndex
 90
        5
102
RTVSPost2010Prop44ColorRGB
 90
      255
102
RTVSPost2010PropOp44
 70
     1
102
RTVSPost2010Prop45
280
     0
102
RTVSPost2010PropOp45
 70
     1
102
RTVSPost2010Prop46
 90
       50
102
RTVSPost2010PropOp46
 70
     1
102
RTVSPost2010Prop47
 90
       50
102
RTVSPost2010PropOp47
 70
     1
102
RTVSPost2010Prop48
 90
       50
102
RTVSPost2010PropOp48
 70
     1
102
RTVSPost2010Prop49
280
     0
102
RTVSPost2010PropOp49
 70
     1
102
RTVSPost2010Prop50
 90
       50
102
RTVSPost2010PropOp50
 70
     1
102
RTVSPost2010Prop51ColorIndex
 90
      256
102
RTVSPost2010Prop51ColorRGB
 90
-16777216
102
RTVSPost2010PropOp51
 70
     0
102
RTVSPost2010Prop52
140
1.0
102
RTVSPost2010PropOp52
 70
     0
102
RTVSPost2010Prop53
 90
        2
102
RTVSPost2010PropOp53
 70
     1
102
RTVSPost2010Prop54
  1
strokes_ogs.tif
102
RTVSPost2010PropOp54
 70
     1
102
RTVSPost2010Prop55
280
     0
102
RTVSPost2010PropOp55
 70
     1
102
RTVSPost2010Prop56
140
1.0
102
RTVSPost2010PropOp56
 70
     1
102
RTVSPost2010Prop57
140
1.0
102
RTVSPost2010PropOp57
 70
     1
102
RTVSPropertyOp0
 70
     1
102
RTVSPropertyOp1
 70
     1
102
RTVSPropertyOp2
 70
     1
102
RTVSPropertyOp3
 70
     1
102
RTVSPropertyOp4
 70
     1
102
RTVSPropertyOp5
 70
     1
102
RTVSPropertyOp6
 70
     1
102
RTVSPropertyOp7
 70
     1
102
RTVSPropertyOp8
 70
     1
102
RTVSPropertyOp9
 70
     1
102
RTVSPropertyOp10
 70
     1
102
RTVSPropertyOp11
 70
     1
102
RTVSPropertyOp12
 70
     1
102
RTVSPropertyOp13
 70
     1
102
RTVSPropertyOp14
 70
     1
102
RTVSPropertyOp15
 70
     1
102
RTVSPropertyOp16
 70
     1
102
RTVSPropertyOp17
 70
     1
102
RTVSPropertyOp18
 70
     1
102
RTVSPropertyOp19
 70
     1
102
RTVSPropertyOp20
 70
     1
102
RTVSPropertyOp21
 70
     1
102
RTVSPropertyOp22
 70
     1
102
RTVSPropertyOp23
 70
     1
102
RTVSPropertyOp24
 70
     1
102
RTVSPropertyOp25
 70
     1
102
RTVSPropertyOp26
 70
     1
102
RTVSPropertyOp27
 70
     1
102
RTVSPropertyOp28
 70
     1
102
RTVSPropertyOp29
 70
     1
102
RTVSPropertyOp30
 70
     1
102
RTVSPropertyOp31
 70
     1
102
RTVSPropertyOp32
 70
     1
102
RTVSPropertyOp33
 70
     1
102
RTVSPropertyOp34
 70
     1
102
RTVSPropertyOp35
 70
     1
102
RTVSPropertyOp36
 70
     1
102
RTVSPropertyOp37
 70
     1
102
RTVSPropertyOp38
 70
     1
102
RTVSPropertyOp39
 70
     1
102
RTVSPropertyOp40
 70
     1
102
RTVSPropertyOp41
 70
     1
102
RTVSPropertyOp42
 70
     1
102
RTVSPropertyOp43
 70
     1
102
RTVSPropertyOp44
 70
     1
102
RTVSPropertyOp45
 70
     1
102
RTVSPropertyOp46
 70
     1
102
RTVSPropertyOp47
 70
     1
102
RTVSPropertyOp48
 70
     1
102
RTVSPropertyOp49
 70
     1
102
RTVSPropertyOp50
 70
     1
102
RTVSPropertyOp51
 70
     0
102
RTVSPropertyOp52
 70
     0
102
RTVSPropertyOp53
 70
     1
102
RTVSPropertyOp54
 70
     1
102
RTVSPropertyOp55
 70
     1
102
RTVSPropertyOp56
 70
     1
102
RTVSPropertyOp57
 70
     1
102
RTVSPropertyOp58
 70
     1
102
RTVSPropertyOp59
 70
     1
102
RTVSPropertyOp60
 70
     1
102
RTVSPropertyOp61
 70
     1
102
RTVSPropertyOp62
 70
     1
  0
XRECORD
  5
544
102
{ACAD_REACTORS
330
543
102
}
330
543
100
AcDbXrecord
280
     1
102
RTVSPost2010Prop28
280
     0
102
RTVSPost2010PropOp28
 70
     1
102
RTVSPost2010Prop29
280
     1
102
RTVSPost2010PropOp29
 70
     1
102
RTVSPost2010Prop30
280
     1
102
RTVSPost2010PropOp30
 70
     1
102
RTVSPost2010Prop31
280
     0
102
RTVSPost2010PropOp31
 70
     1
102
RTVSPost2010Prop32
280
     0
102
RTVSPost2010PropOp32
 70
     1
102
RTVSPost2010Prop33
280
     0
102
RTVSPost2010PropOp33
 70
     1
102
RTVSPost2010Prop34
280
     0
102
RTVSPost2010PropOp34
 70
     1
102
RTVSPost2010Prop35
280
     0
102
RTVSPost2010PropOp35
 70
     1
102
RTVSPost2010Prop36
280
     0
102
RTVSPost2010PropOp36
 70
     1
102
RTVSPost2010Prop37
 90
       50
102
RTVSPost2010PropOp37
 70
     1
102
RTVSPost2010Prop38
140
0.0
102
RTVSPost2010PropOp38
 70
     1
102
RTVSPost2010Prop39
140
1.0
102
RTVSPost2010PropOp39
 70
     1
102
RTVSPost2010Prop40
 90
        0
102
RTVSPost2010PropOp40
 70
     1
102
RTVSPost2010Prop41ColorIndex
 90
       18
102
RTVSPost2010Prop41ColorRGB
 90
        0
102
RTVSPost2010PropOp41
 70
     1
102
RTVSPost2010Prop42
 90
       50
102
RTVSPost2010PropOp42
 70
     1
102
RTVSPost2010Prop43
 90
        3
102
RTVSPost2010PropOp43
 70
     1
102
RTVSPost2010Prop44ColorIndex
 90
        5
102
RTVSPost2010Prop44ColorRGB
 90
      255
102
RTVSPost2010PropOp44
 70
     1
102
RTVSPost2010Prop45
280
     0
102
RTVSPost2010PropOp45
 70
     1
102
RTVSPost2010Prop46
 90
       50
102
RTVSPost2010PropOp46
 70
     1
102
RTVSPost2010Prop47
 90
       50
102
RTVSPost2010PropOp47
 70
     1
102
RTVSPost2010Prop48
 90
       50
102
RTVSPost2010PropOp48
 70
     1
102
RTVSPost2010Prop49
280
     0
102
RTVSPost2010PropOp49
 70
     1
102
RTVSPost2010Prop50
 90
       50
102
RTVSPost2010PropOp50
 70
     1
102
RTVSPost2010Prop51ColorIndex
 90
      256
102
RTVSPost2010Prop51ColorRGB
 90
-16777216
102
RTVSPost2010PropOp51
 70
     0
102
RTVSPost2010Prop52
140
1.0
102
RTVSPost2010PropOp52
 70
     0
102
RTVSPost2010Prop53
 90
        2
102
RTVSPost2010PropOp53
 70
     1
102
RTVSPost2010Prop54
  1
strokes_ogs.tif
102
RTVSPost2010PropOp54
 70
     1
102
RTVSPost2010Prop55
280
     0
102
RTVSPost2010PropOp55
 70
     1
102
RTVSPost2010Prop56
140
1.0
102
RTVSPost2010PropOp56
 70
     1
102
RTVSPost2010Prop57
140
1.0
102
RTVSPost2010PropOp57
 70
     1
102
RTVSPropertyOp0
 70
     1
102
RTVSPropertyOp1
 70
     1
102
RTVSPropertyOp2
 70
     1
102
RTVSPropertyOp3
 70
     1
102
RTVSPropertyOp4
 70
     1
102
RTVSPropertyOp5
 70
     1
102
RTVSPropertyOp6
 70
     1
102
RTVSPropertyOp7
 70
     1
102
RTVSPropertyOp8
 70
     1
102
RTVSPropertyOp9
 70
     1
102
RTVSPropertyOp10
 70
     1
102
RTVSPropertyOp11
 70
     1
102
RTVSPropertyOp12
 70
     1
102
RTVSPropertyOp13
 70
     1
102
RTVSPropertyOp14
 70
     1
102
RTVSPropertyOp15
 70
     1
102
RTVSPropertyOp16
 70
     1
102
RTVSPropertyOp17
 70
     1
102
RTVSPropertyOp18
 70
     1
102
RTVSPropertyOp19
 70
     1
102
RTVSPropertyOp20
 70
     1
102
RTVSPropertyOp21
 70
     1
102
RTVSPropertyOp22
 70
     1
102
RTVSPropertyOp23
 70
     1
102
RTVSPropertyOp24
 70
     1
102
RTVSPropertyOp25
 70
     1
102
RTVSPropertyOp26
 70
     1
102
RTVSPropertyOp27
 70
     1
102
RTVSPropertyOp28
 70
     1
102
RTVSPropertyOp29
 70
     1
102
RTVSPropertyOp30
 70
     1
102
RTVSPropertyOp31
 70
     1
102
RTVSPropertyOp32
 70
     1
102
RTVSPropertyOp33
 70
     1
102
RTVSPropertyOp34
 70
     1
102
RTVSPropertyOp35
 70
     1
102
RTVSPropertyOp36
 70
     1
102
RTVSPropertyOp37
 70
     1
102
RTVSPropertyOp38
 70
     1
102
RTVSPropertyOp39
 70
     1
102
RTVSPropertyOp40
 70
     1
102
RTVSPropertyOp41
 70
     1
102
RTVSPropertyOp42
 70
     1
102
RTVSPropertyOp43
 70
     1
102
RTVSPropertyOp44
 70
     1
102
RTVSPropertyOp45
 70
     1
102
RTVSPropertyOp46
 70
     1
102
RTVSPropertyOp47
 70
     1
102
RTVSPropertyOp48
 70
     1
102
RTVSPropertyOp49
 70
     1
102
RTVSPropertyOp50
 70
     1
102
RTVSPropertyOp51
 70
     0
102
RTVSPropertyOp52
 70
     0
102
RTVSPropertyOp53
 70
     1
102
RTVSPropertyOp54
 70
     1
102
RTVSPropertyOp55
 70
     1
102
RTVSPropertyOp56
 70
     1
102
RTVSPropertyOp57
 70
     1
102
RTVSPropertyOp58
 70
     1
102
RTVSPropertyOp59
 70
     1
102
RTVSPropertyOp60
 70
     1
102
RTVSPropertyOp61
 70
     1
102
RTVSPropertyOp62
 70
     1
  0
XRECORD
  5
556
102
{ACAD_REACTORS
330
555
102
}
330
555
100
AcDbXrecord
280
     1
102
RTVSPost2010Prop28
280
     0
102
RTVSPost2010PropOp28
 70
     1
102
RTVSPost2010Prop29
280
     1
102
RTVSPost2010PropOp29
 70
     1
102
RTVSPost2010Prop30
280
     1
102
RTVSPost2010PropOp30
 70
     1
102
RTVSPost2010Prop31
280
     0
102
RTVSPost2010PropOp31
 70
     1
102
RTVSPost2010Prop32
280
     0
102
RTVSPost2010PropOp32
 70
     1
102
RTVSPost2010Prop33
280
     0
102
RTVSPost2010PropOp33
 70
     1
102
RTVSPost2010Prop34
280
     0
102
RTVSPost2010PropOp34
 70
     1
102
RTVSPost2010Prop35
280
     0
102
RTVSPost2010PropOp35
 70
     1
102
RTVSPost2010Prop36
280
     0
102
RTVSPost2010PropOp36
 70
     1
102
RTVSPost2010Prop37
 90
       50
102
RTVSPost2010PropOp37
 70
     1
102
RTVSPost2010Prop38
140
0.0
102
RTVSPost2010PropOp38
 70
     1
102
RTVSPost2010Prop39
140
1.0
102
RTVSPost2010PropOp39
 70
     1
102
RTVSPost2010Prop40
 90
        0
102
RTVSPost2010PropOp40
 70
     1
102
RTVSPost2010Prop41ColorIndex
 90
       18
102
RTVSPost2010Prop41ColorRGB
 90
        0
102
RTVSPost2010PropOp41
 70
     1
102
RTVSPost2010Prop42
 90
       50
102
RTVSPost2010PropOp42
 70
     1
102
RTVSPost2010Prop43
 90
        3
102
RTVSPost2010PropOp43
 70
     1
102
RTVSPost2010Prop44ColorIndex
 90
        5
102
RTVSPost2010Prop44ColorRGB
 90
      255
102
RTVSPost2010PropOp44
 70
     1
102
RTVSPost2010Prop45
280
     0
102
RTVSPost2010PropOp45
 70
     1
102
RTVSPost2010Prop46
 90
       50
102
RTVSPost2010PropOp46
 70
     1
102
RTVSPost2010Prop47
 90
       50
102
RTVSPost2010PropOp47
 70
     1
102
RTVSPost2010Prop48
 90
       50
102
RTVSPost2010PropOp48
 70
     1
102
RTVSPost2010Prop49
280
     0
102
RTVSPost2010PropOp49
 70
     1
102
RTVSPost2010Prop50
 90
       50
102
RTVSPost2010PropOp50
 70
     1
102
RTVSPost2010Prop51ColorIndex
 90
      256
102
RTVSPost2010Prop51ColorRGB
 90
-16777216
102
RTVSPost2010PropOp51
 70
     0
102
RTVSPost2010Prop52
140
1.0
102
RTVSPost2010PropOp52
 70
     0
102
RTVSPost2010Prop53
 90
        2
102
RTVSPost2010PropOp53
 70
     1
102
RTVSPost2010Prop54
  1
strokes_ogs.tif
102
RTVSPost2010PropOp54
 70
     1
102
RTVSPost2010Prop55
280
     0
102
RTVSPost2010PropOp55
 70
     1
102
RTVSPost2010Prop56
140
1.0
102
RTVSPost2010PropOp56
 70
     1
102
RTVSPost2010Prop57
140
1.0
102
RTVSPost2010PropOp57
 70
     1
102
RTVSPropertyOp0
 70
     0
102
RTVSPropertyOp1
 70
     0
102
RTVSPropertyOp2
 70
     0
102
RTVSPropertyOp3
 70
     0
102
RTVSPropertyOp4
 70
     0
102
RTVSPropertyOp5
 70
     0
102
RTVSPropertyOp6
 70
     0
102
RTVSPropertyOp7
 70
     0
102
RTVSPropertyOp8
 70
     0
102
RTVSPropertyOp9
 70
     0
102
RTVSPropertyOp10
 70
     0
102
RTVSPropertyOp11
 70
     0
102
RTVSPropertyOp12
 70
     0
102
RTVSPropertyOp13
 70
     0
102
RTVSPropertyOp14
 70
     2
102
RTVSPropertyOp15
 70
     0
102
RTVSPropertyOp16
 70
     0
102
RTVSPropertyOp17
 70
     0
102
RTVSPropertyOp18
 70
     0
102
RTVSPropertyOp19
 70
     0
102
RTVSPropertyOp20
 70
     0
102
RTVSPropertyOp21
 70
     0
102
RTVSPropertyOp22
 70
     0
102
RTVSPropertyOp23
 70
     0
102
RTVSPropertyOp24
 70
     0
102
RTVSPropertyOp25
 70
     0
102
RTVSPropertyOp26
 70
     0
102
RTVSPropertyOp27
 70
     0
102
RTVSPropertyOp28
 70
     1
102
RTVSPropertyOp29
 70
     1
102
RTVSPropertyOp30
 70
     1
102
RTVSPropertyOp31
 70
     1
102
RTVSPropertyOp32
 70
     1
102
RTVSPropertyOp33
 70
     1
102
RTVSPropertyOp34
 70
     1
102
RTVSPropertyOp35
 70
     1
102
RTVSPropertyOp36
 70
     1
102
RTVSPropertyOp37
 70
     1
102
RTVSPropertyOp38
 70
     1
102
RTVSPropertyOp39
 70
     1
102
RTVSPropertyOp40
 70
     1
102
RTVSPropertyOp41
 70
     1
102
RTVSPropertyOp42
 70
     1
102
RTVSPropertyOp43
 70
     1
102
RTVSPropertyOp44
 70
     1
102
RTVSPropertyOp45
 70
     1
102
RTVSPropertyOp46
 70
     1
102
RTVSPropertyOp47
 70
     1
102
RTVSPropertyOp48
 70
     1
102
RTVSPropertyOp49
 70
     1
102
RTVSPropertyOp50
 70
     1
102
RTVSPropertyOp51
 70
     0
102
RTVSPropertyOp52
 70
     0
102
RTVSPropertyOp53
 70
     1
102
RTVSPropertyOp54
 70
     1
102
RTVSPropertyOp55
 70
     1
102
RTVSPropertyOp56
 70
     1
102
RTVSPropertyOp57
 70
     1
102
RTVSPropertyOp58
 70
     1
102
RTVSPropertyOp59
 70
     1
102
RTVSPropertyOp60
 70
     1
102
RTVSPropertyOp61
 70
     1
102
RTVSPropertyOp62
 70
     1
  0
XRECORD
  5
550
102
{ACAD_REACTORS
330
54F
102
}
330
54F
100
AcDbXrecord
280
     1
102
RTVSPost2010Prop28
280
     0
102
RTVSPost2010PropOp28
 70
     1
102
RTVSPost2010Prop29
280
     1
102
RTVSPost2010PropOp29
 70
     1
102
RTVSPost2010Prop30
280
     1
102
RTVSPost2010PropOp30
 70
     1
102
RTVSPost2010Prop31
280
     0
102
RTVSPost2010PropOp31
 70
     1
102
RTVSPost2010Prop32
280
     0
102
RTVSPost2010PropOp32
 70
     1
102
RTVSPost2010Prop33
280
     0
102
RTVSPost2010PropOp33
 70
     1
102
RTVSPost2010Prop34
280
     0
102
RTVSPost2010PropOp34
 70
     1
102
RTVSPost2010Prop35
280
     0
102
RTVSPost2010PropOp35
 70
     1
102
RTVSPost2010Prop36
280
     0
102
RTVSPost2010PropOp36
 70
     1
102
RTVSPost2010Prop37
 90
       50
102
RTVSPost2010PropOp37
 70
     1
102
RTVSPost2010Prop38
140
0.0
102
RTVSPost2010PropOp38
 70
     1
102
RTVSPost2010Prop39
140
1.0
102
RTVSPost2010PropOp39
 70
     1
102
RTVSPost2010Prop40
 90
        0
102
RTVSPost2010PropOp40
 70
     1
102
RTVSPost2010Prop41ColorIndex
 90
       18
102
RTVSPost2010Prop41ColorRGB
 90
        0
102
RTVSPost2010PropOp41
 70
     1
102
RTVSPost2010Prop42
 90
       50
102
RTVSPost2010PropOp42
 70
     1
102
RTVSPost2010Prop43
 90
        3
102
RTVSPost2010PropOp43
 70
     1
102
RTVSPost2010Prop44ColorIndex
 90
        5
102
RTVSPost2010Prop44ColorRGB
 90
      255
102
RTVSPost2010PropOp44
 70
     1
102
RTVSPost2010Prop45
280
     0
102
RTVSPost2010PropOp45
 70
     1
102
RTVSPost2010Prop46
 90
       50
102
RTVSPost2010PropOp46
 70
     1
102
RTVSPost2010Prop47
 90
       50
102
RTVSPost2010PropOp47
 70
     1
102
RTVSPost2010Prop48
 90
       50
102
RTVSPost2010PropOp48
 70
     1
102
RTVSPost2010Prop49
280
     0
102
RTVSPost2010PropOp49
 70
     1
102
RTVSPost2010Prop50
 90
       50
102
RTVSPost2010PropOp50
 70
     1
102
RTVSPost2010Prop51ColorIndex
 90
      256
102
RTVSPost2010Prop51ColorRGB
 90
-16777216
102
RTVSPost2010PropOp51
 70
     0
102
RTVSPost2010Prop52
140
1.0
102
RTVSPost2010PropOp52
 70
     0
102
RTVSPost2010Prop53
 90
        2
102
RTVSPost2010PropOp53
 70
     1
102
RTVSPost2010Prop54
  1
strokes_ogs.tif
102
RTVSPost2010PropOp54
 70
     1
102
RTVSPost2010Prop55
280
     0
102
RTVSPost2010PropOp55
 70
     1
102
RTVSPost2010Prop56
140
1.0
102
RTVSPost2010PropOp56
 70
     1
102
RTVSPost2010Prop57
140
1.0
102
RTVSPost2010PropOp57
 70
     1
102
RTVSPropertyOp0
 70
     1
102
RTVSPropertyOp1
 70
     1
102
RTVSPropertyOp2
 70
     1
102
RTVSPropertyOp3
 70
     1
102
RTVSPropertyOp4
 70
     1
102
RTVSPropertyOp5
 70
     1
102
RTVSPropertyOp6
 70
     1
102
RTVSPropertyOp7
 70
     1
102
RTVSPropertyOp8
 70
     1
102
RTVSPropertyOp9
 70
     1
102
RTVSPropertyOp10
 70
     1
102
RTVSPropertyOp11
 70
     1
102
RTVSPropertyOp12
 70
     1
102
RTVSPropertyOp13
 70
     1
102
RTVSPropertyOp14
 70
     1
102
RTVSPropertyOp15
 70
     1
102
RTVSPropertyOp16
 70
     1
102
RTVSPropertyOp17
 70
     1
102
RTVSPropertyOp18
 70
     1
102
RTVSPropertyOp19
 70
     1
102
RTVSPropertyOp20
 70
     1
102
RTVSPropertyOp21
 70
     1
102
RTVSPropertyOp22
 70
     1
102
RTVSPropertyOp23
 70
     1
102
RTVSPropertyOp24
 70
     1
102
RTVSPropertyOp25
 70
     1
102
RTVSPropertyOp26
 70
     1
102
RTVSPropertyOp27
 70
     1
102
RTVSPropertyOp28
 70
     1
102
RTVSPropertyOp29
 70
     1
102
RTVSPropertyOp30
 70
     1
102
RTVSPropertyOp31
 70
     1
102
RTVSPropertyOp32
 70
     1
102
RTVSPropertyOp33
 70
     1
102
RTVSPropertyOp34
 70
     1
102
RTVSPropertyOp35
 70
     1
102
RTVSPropertyOp36
 70
     1
102
RTVSPropertyOp37
 70
     1
102
RTVSPropertyOp38
 70
     1
102
RTVSPropertyOp39
 70
     1
102
RTVSPropertyOp40
 70
     1
102
RTVSPropertyOp41
 70
     1
102
RTVSPropertyOp42
 70
     1
102
RTVSPropertyOp43
 70
     1
102
RTVSPropertyOp44
 70
     1
102
RTVSPropertyOp45
 70
     1
102
RTVSPropertyOp46
 70
     1
102
RTVSPropertyOp47
 70
     1
102
RTVSPropertyOp48
 70
     1
102
RTVSPropertyOp49
 70
     1
102
RTVSPropertyOp50
 70
     1
102
RTVSPropertyOp51
 70
     0
102
RTVSPropertyOp52
 70
     0
102
RTVSPropertyOp53
 70
     1
102
RTVSPropertyOp54
 70
     1
102
RTVSPropertyOp55
 70
     1
102
RTVSPropertyOp56
 70
     1
102
RTVSPropertyOp57
 70
     1
102
RTVSPropertyOp58
 70
     1
102
RTVSPropertyOp59
 70
     1
102
RTVSPropertyOp60
 70
     1
102
RTVSPropertyOp61
 70
     1
102
RTVSPropertyOp62
 70
     1
  0
XRECORD
  5
558
102
{ACAD_REACTORS
330
557
102
}
330
557
100
AcDbXrecord
280
     1
102
RTVSPost2010Prop28
280
     0
102
RTVSPost2010PropOp28
 70
     1
102
RTVSPost2010Prop29
280
     1
102
RTVSPost2010PropOp29
 70
     1
102
RTVSPost2010Prop30
280
     1
102
RTVSPost2010PropOp30
 70
     1
102
RTVSPost2010Prop31
280
     0
102
RTVSPost2010PropOp31
 70
     1
102
RTVSPost2010Prop32
280
     0
102
RTVSPost2010PropOp32
 70
     1
102
RTVSPost2010Prop33
280
     0
102
RTVSPost2010PropOp33
 70
     1
102
RTVSPost2010Prop34
280
     0
102
RTVSPost2010PropOp34
 70
     1
102
RTVSPost2010Prop35
280
     0
102
RTVSPost2010PropOp35
 70
     1
102
RTVSPost2010Prop36
280
     0
102
RTVSPost2010PropOp36
 70
     1
102
RTVSPost2010Prop37
 90
       50
102
RTVSPost2010PropOp37
 70
     1
102
RTVSPost2010Prop38
140
0.0
102
RTVSPost2010PropOp38
 70
     1
102
RTVSPost2010Prop39
140
1.0
102
RTVSPost2010PropOp39
 70
     1
102
RTVSPost2010Prop40
 90
        0
102
RTVSPost2010PropOp40
 70
     1
102
RTVSPost2010Prop41ColorIndex
 90
       18
102
RTVSPost2010Prop41ColorRGB
 90
        0
102
RTVSPost2010PropOp41
 70
     1
102
RTVSPost2010Prop42
 90
       50
102
RTVSPost2010PropOp42
 70
     1
102
RTVSPost2010Prop43
 90
        3
102
RTVSPost2010PropOp43
 70
     1
102
RTVSPost2010Prop44ColorIndex
 90
        5
102
RTVSPost2010Prop44ColorRGB
 90
      255
102
RTVSPost2010PropOp44
 70
     1
102
RTVSPost2010Prop45
280
     0
102
RTVSPost2010PropOp45
 70
     1
102
RTVSPost2010Prop46
 90
       50
102
RTVSPost2010PropOp46
 70
     1
102
RTVSPost2010Prop47
 90
       50
102
RTVSPost2010PropOp47
 70
     1
102
RTVSPost2010Prop48
 90
       50
102
RTVSPost2010PropOp48
 70
     1
102
RTVSPost2010Prop49
280
     0
102
RTVSPost2010PropOp49
 70
     1
102
RTVSPost2010Prop50
 90
       50
102
RTVSPost2010PropOp50
 70
     1
102
RTVSPost2010Prop51ColorIndex
 90
      256
102
RTVSPost2010Prop51ColorRGB
 90
-16777216
102
RTVSPost2010PropOp51
 70
     0
102
RTVSPost2010Prop52
140
1.0
102
RTVSPost2010PropOp52
 70
     0
102
RTVSPost2010Prop53
 90
        2
102
RTVSPost2010PropOp53
 70
     1
102
RTVSPost2010Prop54
  1
strokes_ogs.tif
102
RTVSPost2010PropOp54
 70
     1
102
RTVSPost2010Prop55
280
     0
102
RTVSPost2010PropOp55
 70
     1
102
RTVSPost2010Prop56
140
1.0
102
RTVSPost2010PropOp56
 70
     1
102
RTVSPost2010Prop57
140
1.0
102
RTVSPost2010PropOp57
 70
     1
102
RTVSPropertyOp0
 70
     0
102
RTVSPropertyOp1
 70
     0
102
RTVSPropertyOp2
 70
     0
102
RTVSPropertyOp3
 70
     0
102
RTVSPropertyOp4
 70
     0
102
RTVSPropertyOp5
 70
     0
102
RTVSPropertyOp6
 70
     0
102
RTVSPropertyOp7
 70
     0
102
RTVSPropertyOp8
 70
     0
102
RTVSPropertyOp9
 70
     0
102
RTVSPropertyOp10
 70
     0
102
RTVSPropertyOp11
 70
     0
102
RTVSPropertyOp12
 70
     0
102
RTVSPropertyOp13
 70
     0
102
RTVSPropertyOp14
 70
     2
102
RTVSPropertyOp15
 70
     0
102
RTVSPropertyOp16
 70
     0
102
RTVSPropertyOp17
 70
     0
102
RTVSPropertyOp18
 70
     0
102
RTVSPropertyOp19
 70
     0
102
RTVSPropertyOp20
 70
     0
102
RTVSPropertyOp21
 70
     0
102
RTVSPropertyOp22
 70
     0
102
RTVSPropertyOp23
 70
     0
102
RTVSPropertyOp24
 70
     0
102
RTVSPropertyOp25
 70
     0
102
RTVSPropertyOp26
 70
     0
102
RTVSPropertyOp27
 70
     0
102
RTVSPropertyOp28
 70
     1
102
RTVSPropertyOp29
 70
     1
102
RTVSPropertyOp30
 70
     1
102
RTVSPropertyOp31
 70
     1
102
RTVSPropertyOp32
 70
     1
102
RTVSPropertyOp33
 70
     1
102
RTVSPropertyOp34
 70
     1
102
RTVSPropertyOp35
 70
     1
102
RTVSPropertyOp36
 70
     1
102
RTVSPropertyOp37
 70
     1
102
RTVSPropertyOp38
 70
     1
102
RTVSPropertyOp39
 70
     1
102
RTVSPropertyOp40
 70
     1
102
RTVSPropertyOp41
 70
     1
102
RTVSPropertyOp42
 70
     1
102
RTVSPropertyOp43
 70
     1
102
RTVSPropertyOp44
 70
     1
102
RTVSPropertyOp45
 70
     1
102
RTVSPropertyOp46
 70
     1
102
RTVSPropertyOp47
 70
     1
102
RTVSPropertyOp48
 70
     1
102
RTVSPropertyOp49
 70
     1
102
RTVSPropertyOp50
 70
     1
102
RTVSPropertyOp51
 70
     0
102
RTVSPropertyOp52
 70
     0
102
RTVSPropertyOp53
 70
     1
102
RTVSPropertyOp54
 70
     1
102
RTVSPropertyOp55
 70
     1
102
RTVSPropertyOp56
 70
     1
102
RTVSPropertyOp57
 70
     1
102
RTVSPropertyOp58
 70
     1
102
RTVSPropertyOp59
 70
     1
102
RTVSPropertyOp60
 70
     1
102
RTVSPropertyOp61
 70
     1
102
RTVSPropertyOp62
 70
     1
  0
XRECORD
  5
548
102
{ACAD_REACTORS
330
547
102
}
330
547
100
AcDbXrecord
280
     1
102
RTVSPost2010Prop28
280
     0
102
RTVSPost2010PropOp28
 70
     1
102
RTVSPost2010Prop29
280
     1
102
RTVSPost2010PropOp29
 70
     1
102
RTVSPost2010Prop30
280
     1
102
RTVSPost2010PropOp30
 70
     1
102
RTVSPost2010Prop31
280
     0
102
RTVSPost2010PropOp31
 70
     1
102
RTVSPost2010Prop32
280
     0
102
RTVSPost2010PropOp32
 70
     1
102
RTVSPost2010Prop33
280
     0
102
RTVSPost2010PropOp33
 70
     1
102
RTVSPost2010Prop34
280
     0
102
RTVSPost2010PropOp34
 70
     1
102
RTVSPost2010Prop35
280
     0
102
RTVSPost2010PropOp35
 70
     1
102
RTVSPost2010Prop36
280
     0
102
RTVSPost2010PropOp36
 70
     1
102
RTVSPost2010Prop37
 90
       50
102
RTVSPost2010PropOp37
 70
     1
102
RTVSPost2010Prop38
140
0.0
102
RTVSPost2010PropOp38
 70
     1
102
RTVSPost2010Prop39
140
1.0
102
RTVSPost2010PropOp39
 70
     1
102
RTVSPost2010Prop40
 90
        0
102
RTVSPost2010PropOp40
 70
     1
102
RTVSPost2010Prop41ColorIndex
 90
       18
102
RTVSPost2010Prop41ColorRGB
 90
        0
102
RTVSPost2010PropOp41
 70
     1
102
RTVSPost2010Prop42
 90
       50
102
RTVSPost2010PropOp42
 70
     1
102
RTVSPost2010Prop43
 90
        3
102
RTVSPost2010PropOp43
 70
     1
102
RTVSPost2010Prop44ColorIndex
 90
        5
102
RTVSPost2010Prop44ColorRGB
 90
      255
102
RTVSPost2010PropOp44
 70
     1
102
RTVSPost2010Prop45
280
     0
102
RTVSPost2010PropOp45
 70
     1
102
RTVSPost2010Prop46
 90
       50
102
RTVSPost2010PropOp46
 70
     1
102
RTVSPost2010Prop47
 90
       50
102
RTVSPost2010PropOp47
 70
     1
102
RTVSPost2010Prop48
 90
       50
102
RTVSPost2010PropOp48
 70
     1
102
RTVSPost2010Prop49
280
     0
102
RTVSPost2010PropOp49
 70
     1
102
RTVSPost2010Prop50
 90
       50
102
RTVSPost2010PropOp50
 70
     1
102
RTVSPost2010Prop51ColorIndex
 90
      256
102
RTVSPost2010Prop51ColorRGB
 90
-16777216
102
RTVSPost2010PropOp51
 70
     0
102
RTVSPost2010Prop52
140
1.0
102
RTVSPost2010PropOp52
 70
     0
102
RTVSPost2010Prop53
 90
        2
102
RTVSPost2010PropOp53
 70
     1
102
RTVSPost2010Prop54
  1
strokes_ogs.tif
102
RTVSPost2010PropOp54
 70
     1
102
RTVSPost2010Prop55
280
     0
102
RTVSPost2010PropOp55
 70
     1
102
RTVSPost2010Prop56
140
1.0
102
RTVSPost2010PropOp56
 70
     1
102
RTVSPost2010Prop57
140
1.0
102
RTVSPost2010PropOp57
 70
     1
102
RTVSPropertyOp0
 70
     1
102
RTVSPropertyOp1
 70
     1
102
RTVSPropertyOp2
 70
     1
102
RTVSPropertyOp3
 70
     1
102
RTVSPropertyOp4
 70
     1
102
RTVSPropertyOp5
 70
     1
102
RTVSPropertyOp6
 70
     1
102
RTVSPropertyOp7
 70
     1
102
RTVSPropertyOp8
 70
     1
102
RTVSPropertyOp9
 70
     1
102
RTVSPropertyOp10
 70
     1
102
RTVSPropertyOp11
 70
     1
102
RTVSPropertyOp12
 70
     1
102
RTVSPropertyOp13
 70
     1
102
RTVSPropertyOp14
 70
     1
102
RTVSPropertyOp15
 70
     1
102
RTVSPropertyOp16
 70
     1
102
RTVSPropertyOp17
 70
     1
102
RTVSPropertyOp18
 70
     1
102
RTVSPropertyOp19
 70
     1
102
RTVSPropertyOp20
 70
     1
102
RTVSPropertyOp21
 70
     1
102
RTVSPropertyOp22
 70
     1
102
RTVSPropertyOp23
 70
     1
102
RTVSPropertyOp24
 70
     1
102
RTVSPropertyOp25
 70
     1
102
RTVSPropertyOp26
 70
     1
102
RTVSPropertyOp27
 70
     1
102
RTVSPropertyOp28
 70
     1
102
RTVSPropertyOp29
 70
     1
102
RTVSPropertyOp30
 70
     1
102
RTVSPropertyOp31
 70
     1
102
RTVSPropertyOp32
 70
     1
102
RTVSPropertyOp33
 70
     1
102
RTVSPropertyOp34
 70
     1
102
RTVSPropertyOp35
 70
     1
102
RTVSPropertyOp36
 70
     1
102
RTVSPropertyOp37
 70
     1
102
RTVSPropertyOp38
 70
     1
102
RTVSPropertyOp39
 70
     1
102
RTVSPropertyOp40
 70
     1
102
RTVSPropertyOp41
 70
     1
102
RTVSPropertyOp42
 70
     1
102
RTVSPropertyOp43
 70
     1
102
RTVSPropertyOp44
 70
     1
102
RTVSPropertyOp45
 70
     1
102
RTVSPropertyOp46
 70
     1
102
RTVSPropertyOp47
 70
     1
102
RTVSPropertyOp48
 70
     1
102
RTVSPropertyOp49
 70
     1
102
RTVSPropertyOp50
 70
     1
102
RTVSPropertyOp51
 70
     0
102
RTVSPropertyOp52
 70
     0
102
RTVSPropertyOp53
 70
     1
102
RTVSPropertyOp54
 70
     1
102
RTVSPropertyOp55
 70
     1
102
RTVSPropertyOp56
 70
     1
102
RTVSPropertyOp57
 70
     1
102
RTVSPropertyOp58
 70
     1
102
RTVSPropertyOp59
 70
     1
102
RTVSPropertyOp60
 70
     1
102
RTVSPropertyOp61
 70
     1
102
RTVSPropertyOp62
 70
     1
  0
XRECORD
  5
564
102
{ACAD_REACTORS
330
563
102
}
330
563
100
AcDbXrecord
280
     1
102
RTVSPost2010Prop28
280
     0
102
RTVSPost2010PropOp28
 70
     1
102
RTVSPost2010Prop29
280
     1
102
RTVSPost2010PropOp29
 70
     1
102
RTVSPost2010Prop30
280
     1
102
RTVSPost2010PropOp30
 70
     1
102
RTVSPost2010Prop31
280
     0
102
RTVSPost2010PropOp31
 70
     1
102
RTVSPost2010Prop32
280
     0
102
RTVSPost2010PropOp32
 70
     1
102
RTVSPost2010Prop33
280
     0
102
RTVSPost2010PropOp33
 70
     1
102
RTVSPost2010Prop34
280
     0
102
RTVSPost2010PropOp34
 70
     1
102
RTVSPost2010Prop35
280
     0
102
RTVSPost2010PropOp35
 70
     1
102
RTVSPost2010Prop36
280
     0
102
RTVSPost2010PropOp36
 70
     1
102
RTVSPost2010Prop37
 90
       50
102
RTVSPost2010PropOp37
 70
     1
102
RTVSPost2010Prop38
140
0.0
102
RTVSPost2010PropOp38
 70
     1
102
RTVSPost2010Prop39
140
1.0
102
RTVSPost2010PropOp39
 70
     1
102
RTVSPost2010Prop40
 90
        0
102
RTVSPost2010PropOp40
 70
     1
102
RTVSPost2010Prop41ColorIndex
 90
       18
102
RTVSPost2010Prop41ColorRGB
 90
        0
102
RTVSPost2010PropOp41
 70
     1
102
RTVSPost2010Prop42
 90
       50
102
RTVSPost2010PropOp42
 70
     1
102
RTVSPost2010Prop43
 90
        3
102
RTVSPost2010PropOp43
 70
     1
102
RTVSPost2010Prop44ColorIndex
 90
        5
102
RTVSPost2010Prop44ColorRGB
 90
      255
102
RTVSPost2010PropOp44
 70
     1
102
RTVSPost2010Prop45
280
     0
102
RTVSPost2010PropOp45
 70
     1
102
RTVSPost2010Prop46
 90
       50
102
RTVSPost2010PropOp46
 70
     1
102
RTVSPost2010Prop47
 90
       50
102
RTVSPost2010PropOp47
 70
     1
102
RTVSPost2010Prop48
 90
       50
102
RTVSPost2010PropOp48
 70
     1
102
RTVSPost2010Prop49
280
     0
102
RTVSPost2010PropOp49
 70
     1
102
RTVSPost2010Prop50
 90
       50
102
RTVSPost2010PropOp50
 70
     1
102
RTVSPost2010Prop51ColorIndex
 90
      256
102
RTVSPost2010Prop51ColorRGB
 90
-16777216
102
RTVSPost2010PropOp51
 70
     0
102
RTVSPost2010Prop52
140
1.0
102
RTVSPost2010PropOp52
 70
     0
102
RTVSPost2010Prop53
 90
        2
102
RTVSPost2010PropOp53
 70
     1
102
RTVSPost2010Prop54
  1
strokes_ogs.tif
102
RTVSPost2010PropOp54
 70
     1
102
RTVSPost2010Prop55
280
     0
102
RTVSPost2010PropOp55
 70
     1
102
RTVSPost2010Prop56
140
1.0
102
RTVSPost2010PropOp56
 70
     1
102
RTVSPost2010Prop57
140
1.0
102
RTVSPost2010PropOp57
 70
     1
102
RTVSPropertyOp0
 70
     1
102
RTVSPropertyOp1
 70
     1
102
RTVSPropertyOp2
 70
     1
102
RTVSPropertyOp3
 70
     1
102
RTVSPropertyOp4
 70
     1
102
RTVSPropertyOp5
 70
     1
102
RTVSPropertyOp6
 70
     1
102
RTVSPropertyOp7
 70
     1
102
RTVSPropertyOp8
 70
     1
102
RTVSPropertyOp9
 70
     1
102
RTVSPropertyOp10
 70
     1
102
RTVSPropertyOp11
 70
     1
102
RTVSPropertyOp12
 70
     1
102
RTVSPropertyOp13
 70
     1
102
RTVSPropertyOp14
 70
     1
102
RTVSPropertyOp15
 70
     1
102
RTVSPropertyOp16
 70
     1
102
RTVSPropertyOp17
 70
     1
102
RTVSPropertyOp18
 70
     1
102
RTVSPropertyOp19
 70
     1
102
RTVSPropertyOp20
 70
     1
102
RTVSPropertyOp21
 70
     1
102
RTVSPropertyOp22
 70
     1
102
RTVSPropertyOp23
 70
     1
102
RTVSPropertyOp24
 70
     1
102
RTVSPropertyOp25
 70
     1
102
RTVSPropertyOp26
 70
     1
102
RTVSPropertyOp27
 70
     1
102
RTVSPropertyOp28
 70
     1
102
RTVSPropertyOp29
 70
     1
102
RTVSPropertyOp30
 70
     1
102
RTVSPropertyOp31
 70
     1
102
RTVSPropertyOp32
 70
     1
102
RTVSPropertyOp33
 70
     1
102
RTVSPropertyOp34
 70
     1
102
RTVSPropertyOp35
 70
     1
102
RTVSPropertyOp36
 70
     1
102
RTVSPropertyOp37
 70
     1
102
RTVSPropertyOp38
 70
     1
102
RTVSPropertyOp39
 70
     1
102
RTVSPropertyOp40
 70
     1
102
RTVSPropertyOp41
 70
     1
102
RTVSPropertyOp42
 70
     1
102
RTVSPropertyOp43
 70
     1
102
RTVSPropertyOp44
 70
     1
102
RTVSPropertyOp45
 70
     1
102
RTVSPropertyOp46
 70
     1
102
RTVSPropertyOp47
 70
     1
102
RTVSPropertyOp48
 70
     1
102
RTVSPropertyOp49
 70
     1
102
RTVSPropertyOp50
 70
     1
102
RTVSPropertyOp51
 70
     0
102
RTVSPropertyOp52
 70
     0
102
RTVSPropertyOp53
 70
     1
102
RTVSPropertyOp54
 70
     1
102
RTVSPropertyOp55
 70
     1
102
RTVSPropertyOp56
 70
     1
102
RTVSPropertyOp57
 70
     1
102
RTVSPropertyOp58
 70
     1
102
RTVSPropertyOp59
 70
     1
102
RTVSPropertyOp60
 70
     1
102
RTVSPropertyOp61
 70
     1
102
RTVSPropertyOp62
 70
     1
  0
XRECORD
  5
562
102
{ACAD_REACTORS
330
561
102
}
330
561
100
AcDbXrecord
280
     1
102
RTVSPost2010Prop28
280
     0
102
RTVSPost2010PropOp28
 70
     1
102
RTVSPost2010Prop29
280
     1
102
RTVSPost2010PropOp29
 70
     1
102
RTVSPost2010Prop30
280
     1
102
RTVSPost2010PropOp30
 70
     1
102
RTVSPost2010Prop31
280
     0
102
RTVSPost2010PropOp31
 70
     1
102
RTVSPost2010Prop32
280
     0
102
RTVSPost2010PropOp32
 70
     1
102
RTVSPost2010Prop33
280
     0
102
RTVSPost2010PropOp33
 70
     1
102
RTVSPost2010Prop34
280
     0
102
RTVSPost2010PropOp34
 70
     1
102
RTVSPost2010Prop35
280
     0
102
RTVSPost2010PropOp35
 70
     1
102
RTVSPost2010Prop36
280
     0
102
RTVSPost2010PropOp36
 70
     1
102
RTVSPost2010Prop37
 90
       50
102
RTVSPost2010PropOp37
 70
     1
102
RTVSPost2010Prop38
140
0.0
102
RTVSPost2010PropOp38
 70
     1
102
RTVSPost2010Prop39
140
1.0
102
RTVSPost2010PropOp39
 70
     1
102
RTVSPost2010Prop40
 90
        0
102
RTVSPost2010PropOp40
 70
     1
102
RTVSPost2010Prop41ColorIndex
 90
       18
102
RTVSPost2010Prop41ColorRGB
 90
        0
102
RTVSPost2010PropOp41
 70
     1
102
RTVSPost2010Prop42
 90
       50
102
RTVSPost2010PropOp42
 70
     1
102
RTVSPost2010Prop43
 90
        3
102
RTVSPost2010PropOp43
 70
     1
102
RTVSPost2010Prop44ColorIndex
 90
        5
102
RTVSPost2010Prop44ColorRGB
 90
      255
102
RTVSPost2010PropOp44
 70
     1
102
RTVSPost2010Prop45
280
     0
102
RTVSPost2010PropOp45
 70
     1
102
RTVSPost2010Prop46
 90
       50
102
RTVSPost2010PropOp46
 70
     1
102
RTVSPost2010Prop47
 90
       50
102
RTVSPost2010PropOp47
 70
     1
102
RTVSPost2010Prop48
 90
       50
102
RTVSPost2010PropOp48
 70
     1
102
RTVSPost2010Prop49
280
     0
102
RTVSPost2010PropOp49
 70
     1
102
RTVSPost2010Prop50
 90
       50
102
RTVSPost2010PropOp50
 70
     1
102
RTVSPost2010Prop51ColorIndex
 90
      256
102
RTVSPost2010Prop51ColorRGB
 90
-16777216
102
RTVSPost2010PropOp51
 70
     0
102
RTVSPost2010Prop52
140
1.0
102
RTVSPost2010PropOp52
 70
     0
102
RTVSPost2010Prop53
 90
        2
102
RTVSPost2010PropOp53
 70
     1
102
RTVSPost2010Prop54
  1
strokes_ogs.tif
102
RTVSPost2010PropOp54
 70
     1
102
RTVSPost2010Prop55
280
     0
102
RTVSPost2010PropOp55
 70
     1
102
RTVSPost2010Prop56
140
1.0
102
RTVSPost2010PropOp56
 70
     1
102
RTVSPost2010Prop57
140
1.0
102
RTVSPost2010PropOp57
 70
     1
102
RTVSPropertyOp0
 70
     1
102
RTVSPropertyOp1
 70
     1
102
RTVSPropertyOp2
 70
     1
102
RTVSPropertyOp3
 70
     1
102
RTVSPropertyOp4
 70
     1
102
RTVSPropertyOp5
 70
     1
102
RTVSPropertyOp6
 70
     1
102
RTVSPropertyOp7
 70
     1
102
RTVSPropertyOp8
 70
     1
102
RTVSPropertyOp9
 70
     1
102
RTVSPropertyOp10
 70
     1
102
RTVSPropertyOp11
 70
     1
102
RTVSPropertyOp12
 70
     1
102
RTVSPropertyOp13
 70
     1
102
RTVSPropertyOp14
 70
     1
102
RTVSPropertyOp15
 70
     1
102
RTVSPropertyOp16
 70
     1
102
RTVSPropertyOp17
 70
     1
102
RTVSPropertyOp18
 70
     1
102
RTVSPropertyOp19
 70
     1
102
RTVSPropertyOp20
 70
     1
102
RTVSPropertyOp21
 70
     1
102
RTVSPropertyOp22
 70
     1
102
RTVSPropertyOp23
 70
     1
102
RTVSPropertyOp24
 70
     1
102
RTVSPropertyOp25
 70
     1
102
RTVSPropertyOp26
 70
     1
102
RTVSPropertyOp27
 70
     1
102
RTVSPropertyOp28
 70
     1
102
RTVSPropertyOp29
 70
     1
102
RTVSPropertyOp30
 70
     1
102
RTVSPropertyOp31
 70
     1
102
RTVSPropertyOp32
 70
     1
102
RTVSPropertyOp33
 70
     1
102
RTVSPropertyOp34
 70
     1
102
RTVSPropertyOp35
 70
     1
102
RTVSPropertyOp36
 70
     1
102
RTVSPropertyOp37
 70
     1
102
RTVSPropertyOp38
 70
     1
102
RTVSPropertyOp39
 70
     1
102
RTVSPropertyOp40
 70
     1
102
RTVSPropertyOp41
 70
     1
102
RTVSPropertyOp42
 70
     1
102
RTVSPropertyOp43
 70
     1
102
RTVSPropertyOp44
 70
     1
102
RTVSPropertyOp45
 70
     1
102
RTVSPropertyOp46
 70
     1
102
RTVSPropertyOp47
 70
     1
102
RTVSPropertyOp48
 70
     1
102
RTVSPropertyOp49
 70
     1
102
RTVSPropertyOp50
 70
     1
102
RTVSPropertyOp51
 70
     0
102
RTVSPropertyOp52
 70
     0
102
RTVSPropertyOp53
 70
     1
102
RTVSPropertyOp54
 70
     1
102
RTVSPropertyOp55
 70
     1
102
RTVSPropertyOp56
 70
     1
102
RTVSPropertyOp57
 70
     1
102
RTVSPropertyOp58
 70
     1
102
RTVSPropertyOp59
 70
     1
102
RTVSPropertyOp60
 70
     1
102
RTVSPropertyOp61
 70
     1
102
RTVSPropertyOp62
 70
     1
  0
XRECORD
  5
55C
102
{ACAD_REACTORS
330
55B
102
}
330
55B
100
AcDbXrecord
280
     1
102
RTVSPost2010Prop28
280
     0
102
RTVSPost2010PropOp28
 70
     1
102
RTVSPost2010Prop29
280
     1
102
RTVSPost2010PropOp29
 70
     1
102
RTVSPost2010Prop30
280
     1
102
RTVSPost2010PropOp30
 70
     1
102
RTVSPost2010Prop31
280
     0
102
RTVSPost2010PropOp31
 70
     1
102
RTVSPost2010Prop32
280
     0
102
RTVSPost2010PropOp32
 70
     1
102
RTVSPost2010Prop33
280
     0
102
RTVSPost2010PropOp33
 70
     1
102
RTVSPost2010Prop34
280
     0
102
RTVSPost2010PropOp34
 70
     1
102
RTVSPost2010Prop35
280
     0
102
RTVSPost2010PropOp35
 70
     1
102
RTVSPost2010Prop36
280
     0
102
RTVSPost2010PropOp36
 70
     1
102
RTVSPost2010Prop37
 90
       50
102
RTVSPost2010PropOp37
 70
     1
102
RTVSPost2010Prop38
140
0.0
102
RTVSPost2010PropOp38
 70
     1
102
RTVSPost2010Prop39
140
1.0
102
RTVSPost2010PropOp39
 70
     1
102
RTVSPost2010Prop40
 90
        0
102
RTVSPost2010PropOp40
 70
     1
102
RTVSPost2010Prop41ColorIndex
 90
       18
102
RTVSPost2010Prop41ColorRGB
 90
        0
102
RTVSPost2010PropOp41
 70
     1
102
RTVSPost2010Prop42
 90
       50
102
RTVSPost2010PropOp42
 70
     1
102
RTVSPost2010Prop43
 90
        3
102
RTVSPost2010PropOp43
 70
     1
102
RTVSPost2010Prop44ColorIndex
 90
        5
102
RTVSPost2010Prop44ColorRGB
 90
      255
102
RTVSPost2010PropOp44
 70
     1
102
RTVSPost2010Prop45
280
     0
102
RTVSPost2010PropOp45
 70
     1
102
RTVSPost2010Prop46
 90
       50
102
RTVSPost2010PropOp46
 70
     1
102
RTVSPost2010Prop47
 90
       50
102
RTVSPost2010PropOp47
 70
     1
102
RTVSPost2010Prop48
 90
       50
102
RTVSPost2010PropOp48
 70
     1
102
RTVSPost2010Prop49
280
     0
102
RTVSPost2010PropOp49
 70
     1
102
RTVSPost2010Prop50
 90
       50
102
RTVSPost2010PropOp50
 70
     1
102
RTVSPost2010Prop51ColorIndex
 90
      256
102
RTVSPost2010Prop51ColorRGB
 90
-16777216
102
RTVSPost2010PropOp51
 70
     0
102
RTVSPost2010Prop52
140
1.0
102
RTVSPost2010PropOp52
 70
     0
102
RTVSPost2010Prop53
 90
        2
102
RTVSPost2010PropOp53
 70
     1
102
RTVSPost2010Prop54
  1
strokes_ogs.tif
102
RTVSPost2010PropOp54
 70
     1
102
RTVSPost2010Prop55
280
     0
102
RTVSPost2010PropOp55
 70
     1
102
RTVSPost2010Prop56
140
1.0
102
RTVSPost2010PropOp56
 70
     1
102
RTVSPost2010Prop57
140
1.0
102
RTVSPost2010PropOp57
 70
     1
102
RTVSPropertyOp0
 70
     1
102
RTVSPropertyOp1
 70
     1
102
RTVSPropertyOp2
 70
     1
102
RTVSPropertyOp3
 70
     1
102
RTVSPropertyOp4
 70
     1
102
RTVSPropertyOp5
 70
     1
102
RTVSPropertyOp6
 70
     1
102
RTVSPropertyOp7
 70
     1
102
RTVSPropertyOp8
 70
     1
102
RTVSPropertyOp9
 70
     1
102
RTVSPropertyOp10
 70
     1
102
RTVSPropertyOp11
 70
     1
102
RTVSPropertyOp12
 70
     1
102
RTVSPropertyOp13
 70
     1
102
RTVSPropertyOp14
 70
     1
102
RTVSPropertyOp15
 70
     1
102
RTVSPropertyOp16
 70
     1
102
RTVSPropertyOp17
 70
     1
102
RTVSPropertyOp18
 70
     1
102
RTVSPropertyOp19
 70
     1
102
RTVSPropertyOp20
 70
     1
102
RTVSPropertyOp21
 70
     1
102
RTVSPropertyOp22
 70
     1
102
RTVSPropertyOp23
 70
     1
102
RTVSPropertyOp24
 70
     1
102
RTVSPropertyOp25
 70
     1
102
RTVSPropertyOp26
 70
     1
102
RTVSPropertyOp27
 70
     1
102
RTVSPropertyOp28
 70
     1
102
RTVSPropertyOp29
 70
     1
102
RTVSPropertyOp30
 70
     1
102
RTVSPropertyOp31
 70
     1
102
RTVSPropertyOp32
 70
     1
102
RTVSPropertyOp33
 70
     1
102
RTVSPropertyOp34
 70
     1
102
RTVSPropertyOp35
 70
     1
102
RTVSPropertyOp36
 70
     1
102
RTVSPropertyOp37
 70
     1
102
RTVSPropertyOp38
 70
     1
102
RTVSPropertyOp39
 70
     1
102
RTVSPropertyOp40
 70
     1
102
RTVSPropertyOp41
 70
     1
102
RTVSPropertyOp42
 70
     1
102
RTVSPropertyOp43
 70
     1
102
RTVSPropertyOp44
 70
     1
102
RTVSPropertyOp45
 70
     1
102
RTVSPropertyOp46
 70
     1
102
RTVSPropertyOp47
 70
     1
102
RTVSPropertyOp48
 70
     1
102
RTVSPropertyOp49
 70
     1
102
RTVSPropertyOp50
 70
     1
102
RTVSPropertyOp51
 70
     0
102
RTVSPropertyOp52
 70
     0
102
RTVSPropertyOp53
 70
     1
102
RTVSPropertyOp54
 70
     1
102
RTVSPropertyOp55
 70
     1
102
RTVSPropertyOp56
 70
     1
102
RTVSPropertyOp57
 70
     1
102
RTVSPropertyOp58
 70
     1
102
RTVSPropertyOp59
 70
     1
102
RTVSPropertyOp60
 70
     1
102
RTVSPropertyOp61
 70
     1
102
RTVSPropertyOp62
 70
     1
  0
XRECORD
  5
55E
102
{ACAD_REACTORS
330
55D
102
}
330
55D
100
AcDbXrecord
280
     1
102
RTVSPost2010Prop28
280
     0
102
RTVSPost2010PropOp28
 70
     1
102
RTVSPost2010Prop29
280
     1
102
RTVSPost2010PropOp29
 70
     1
102
RTVSPost2010Prop30
280
     1
102
RTVSPost2010PropOp30
 70
     1
102
RTVSPost2010Prop31
280
     0
102
RTVSPost2010PropOp31
 70
     1
102
RTVSPost2010Prop32
280
     0
102
RTVSPost2010PropOp32
 70
     1
102
RTVSPost2010Prop33
280
     0
102
RTVSPost2010PropOp33
 70
     1
102
RTVSPost2010Prop34
280
     0
102
RTVSPost2010PropOp34
 70
     1
102
RTVSPost2010Prop35
280
     0
102
RTVSPost2010PropOp35
 70
     1
102
RTVSPost2010Prop36
280
     0
102
RTVSPost2010PropOp36
 70
     1
102
RTVSPost2010Prop37
 90
       50
102
RTVSPost2010PropOp37
 70
     1
102
RTVSPost2010Prop38
140
0.0
102
RTVSPost2010PropOp38
 70
     1
102
RTVSPost2010Prop39
140
1.0
102
RTVSPost2010PropOp39
 70
     1
102
RTVSPost2010Prop40
 90
        0
102
RTVSPost2010PropOp40
 70
     1
102
RTVSPost2010Prop41ColorIndex
 90
       18
102
RTVSPost2010Prop41ColorRGB
 90
        0
102
RTVSPost2010PropOp41
 70
     1
102
RTVSPost2010Prop42
 90
       50
102
RTVSPost2010PropOp42
 70
     1
102
RTVSPost2010Prop43
 90
        3
102
RTVSPost2010PropOp43
 70
     1
102
RTVSPost2010Prop44ColorIndex
 90
        5
102
RTVSPost2010Prop44ColorRGB
 90
      255
102
RTVSPost2010PropOp44
 70
     1
102
RTVSPost2010Prop45
280
     0
102
RTVSPost2010PropOp45
 70
     1
102
RTVSPost2010Prop46
 90
       50
102
RTVSPost2010PropOp46
 70
     1
102
RTVSPost2010Prop47
 90
       50
102
RTVSPost2010PropOp47
 70
     1
102
RTVSPost2010Prop48
 90
       50
102
RTVSPost2010PropOp48
 70
     1
102
RTVSPost2010Prop49
280
     0
102
RTVSPost2010PropOp49
 70
     1
102
RTVSPost2010Prop50
 90
       50
102
RTVSPost2010PropOp50
 70
     1
102
RTVSPost2010Prop51ColorIndex
 90
      256
102
RTVSPost2010Prop51ColorRGB
 90
-16777216
102
RTVSPost2010PropOp51
 70
     0
102
RTVSPost2010Prop52
140
1.0
102
RTVSPost2010PropOp52
 70
     0
102
RTVSPost2010Prop53
 90
        2
102
RTVSPost2010PropOp53
 70
     1
102
RTVSPost2010Prop54
  1
strokes_ogs.tif
102
RTVSPost2010PropOp54
 70
     1
102
RTVSPost2010Prop55
280
     0
102
RTVSPost2010PropOp55
 70
     1
102
RTVSPost2010Prop56
140
1.0
102
RTVSPost2010PropOp56
 70
     1
102
RTVSPost2010Prop57
140
1.0
102
RTVSPost2010PropOp57
 70
     1
102
RTVSPropertyOp0
 70
     1
102
RTVSPropertyOp1
 70
     1
102
RTVSPropertyOp2
 70
     1
102
RTVSPropertyOp3
 70
     1
102
RTVSPropertyOp4
 70
     1
102
RTVSPropertyOp5
 70
     1
102
RTVSPropertyOp6
 70
     1
102
RTVSPropertyOp7
 70
     1
102
RTVSPropertyOp8
 70
     1
102
RTVSPropertyOp9
 70
     1
102
RTVSPropertyOp10
 70
     1
102
RTVSPropertyOp11
 70
     1
102
RTVSPropertyOp12
 70
     1
102
RTVSPropertyOp13
 70
     1
102
RTVSPropertyOp14
 70
     1
102
RTVSPropertyOp15
 70
     1
102
RTVSPropertyOp16
 70
     1
102
RTVSPropertyOp17
 70
     1
102
RTVSPropertyOp18
 70
     1
102
RTVSPropertyOp19
 70
     1
102
RTVSPropertyOp20
 70
     1
102
RTVSPropertyOp21
 70
     1
102
RTVSPropertyOp22
 70
     1
102
RTVSPropertyOp23
 70
     1
102
RTVSPropertyOp24
 70
     1
102
RTVSPropertyOp25
 70
     1
102
RTVSPropertyOp26
 70
     1
102
RTVSPropertyOp27
 70
     1
102
RTVSPropertyOp28
 70
     1
102
RTVSPropertyOp29
 70
     1
102
RTVSPropertyOp30
 70
     1
102
RTVSPropertyOp31
 70
     1
102
RTVSPropertyOp32
 70
     1
102
RTVSPropertyOp33
 70
     1
102
RTVSPropertyOp34
 70
     1
102
RTVSPropertyOp35
 70
     1
102
RTVSPropertyOp36
 70
     1
102
RTVSPropertyOp37
 70
     1
102
RTVSPropertyOp38
 70
     1
102
RTVSPropertyOp39
 70
     1
102
RTVSPropertyOp40
 70
     1
102
RTVSPropertyOp41
 70
     1
102
RTVSPropertyOp42
 70
     1
102
RTVSPropertyOp43
 70
     1
102
RTVSPropertyOp44
 70
     1
102
RTVSPropertyOp45
 70
     1
102
RTVSPropertyOp46
 70
     1
102
RTVSPropertyOp47
 70
     1
102
RTVSPropertyOp48
 70
     1
102
RTVSPropertyOp49
 70
     1
102
RTVSPropertyOp50
 70
     1
102
RTVSPropertyOp51
 70
     0
102
RTVSPropertyOp52
 70
     0
102
RTVSPropertyOp53
 70
     1
102
RTVSPropertyOp54
 70
     1
102
RTVSPropertyOp55
 70
     1
102
RTVSPropertyOp56
 70
     1
102
RTVSPropertyOp57
 70
     1
102
RTVSPropertyOp58
 70
     1
102
RTVSPropertyOp59
 70
     1
102
RTVSPropertyOp60
 70
     1
102
RTVSPropertyOp61
 70
     1
102
RTVSPropertyOp62
 70
     1
  0
XRECORD
  5
54E
102
{ACAD_REACTORS
330
54D
102
}
330
54D
100
AcDbXrecord
280
     1
102
RTVSPost2010Prop28
280
     0
102
RTVSPost2010PropOp28
 70
     1
102
RTVSPost2010Prop29
280
     1
102
RTVSPost2010PropOp29
 70
     1
102
RTVSPost2010Prop30
280
     1
102
RTVSPost2010PropOp30
 70
     1
102
RTVSPost2010Prop31
280
     0
102
RTVSPost2010PropOp31
 70
     1
102
RTVSPost2010Prop32
280
     0
102
RTVSPost2010PropOp32
 70
     1
102
RTVSPost2010Prop33
280
     0
102
RTVSPost2010PropOp33
 70
     1
102
RTVSPost2010Prop34
280
     0
102
RTVSPost2010PropOp34
 70
     1
102
RTVSPost2010Prop35
280
     0
102
RTVSPost2010PropOp35
 70
     1
102
RTVSPost2010Prop36
280
     0
102
RTVSPost2010PropOp36
 70
     1
102
RTVSPost2010Prop37
 90
       50
102
RTVSPost2010PropOp37
 70
     1
102
RTVSPost2010Prop38
140
0.0
102
RTVSPost2010PropOp38
 70
     1
102
RTVSPost2010Prop39
140
1.0
102
RTVSPost2010PropOp39
 70
     1
102
RTVSPost2010Prop40
 90
        0
102
RTVSPost2010PropOp40
 70
     1
102
RTVSPost2010Prop41ColorIndex
 90
       18
102
RTVSPost2010Prop41ColorRGB
 90
        0
102
RTVSPost2010PropOp41
 70
     1
102
RTVSPost2010Prop42
 90
       50
102
RTVSPost2010PropOp42
 70
     1
102
RTVSPost2010Prop43
 90
        3
102
RTVSPost2010PropOp43
 70
     1
102
RTVSPost2010Prop44ColorIndex
 90
        5
102
RTVSPost2010Prop44ColorRGB
 90
      255
102
RTVSPost2010PropOp44
 70
     1
102
RTVSPost2010Prop45
280
     0
102
RTVSPost2010PropOp45
 70
     1
102
RTVSPost2010Prop46
 90
       50
102
RTVSPost2010PropOp46
 70
     1
102
RTVSPost2010Prop47
 90
       50
102
RTVSPost2010PropOp47
 70
     1
102
RTVSPost2010Prop48
 90
       50
102
RTVSPost2010PropOp48
 70
     1
102
RTVSPost2010Prop49
280
     0
102
RTVSPost2010PropOp49
 70
     1
102
RTVSPost2010Prop50
 90
       50
102
RTVSPost2010PropOp50
 70
     1
102
RTVSPost2010Prop51ColorIndex
 90
      256
102
RTVSPost2010Prop51ColorRGB
 90
-16777216
102
RTVSPost2010PropOp51
 70
     0
102
RTVSPost2010Prop52
140
1.0
102
RTVSPost2010PropOp52
 70
     0
102
RTVSPost2010Prop53
 90
        2
102
RTVSPost2010PropOp53
 70
     1
102
RTVSPost2010Prop54
  1
strokes_ogs.tif
102
RTVSPost2010PropOp54
 70
     1
102
RTVSPost2010Prop55
280
     0
102
RTVSPost2010PropOp55
 70
     1
102
RTVSPost2010Prop56
140
1.0
102
RTVSPost2010PropOp56
 70
     1
102
RTVSPost2010Prop57
140
1.0
102
RTVSPost2010PropOp57
 70
     1
102
RTVSPropertyOp0
 70
     1
102
RTVSPropertyOp1
 70
     1
102
RTVSPropertyOp2
 70
     1
102
RTVSPropertyOp3
 70
     1
102
RTVSPropertyOp4
 70
     1
102
RTVSPropertyOp5
 70
     1
102
RTVSPropertyOp6
 70
     1
102
RTVSPropertyOp7
 70
     1
102
RTVSPropertyOp8
 70
     1
102
RTVSPropertyOp9
 70
     1
102
RTVSPropertyOp10
 70
     1
102
RTVSPropertyOp11
 70
     1
102
RTVSPropertyOp12
 70
     1
102
RTVSPropertyOp13
 70
     1
102
RTVSPropertyOp14
 70
     1
102
RTVSPropertyOp15
 70
     1
102
RTVSPropertyOp16
 70
     1
102
RTVSPropertyOp17
 70
     1
102
RTVSPropertyOp18
 70
     1
102
RTVSPropertyOp19
 70
     1
102
RTVSPropertyOp20
 70
     1
102
RTVSPropertyOp21
 70
     1
102
RTVSPropertyOp22
 70
     1
102
RTVSPropertyOp23
 70
     1
102
RTVSPropertyOp24
 70
     1
102
RTVSPropertyOp25
 70
     1
102
RTVSPropertyOp26
 70
     1
102
RTVSPropertyOp27
 70
     1
102
RTVSPropertyOp28
 70
     1
102
RTVSPropertyOp29
 70
     1
102
RTVSPropertyOp30
 70
     1
102
RTVSPropertyOp31
 70
     1
102
RTVSPropertyOp32
 70
     1
102
RTVSPropertyOp33
 70
     1
102
RTVSPropertyOp34
 70
     1
102
RTVSPropertyOp35
 70
     1
102
RTVSPropertyOp36
 70
     1
102
RTVSPropertyOp37
 70
     1
102
RTVSPropertyOp38
 70
     1
102
RTVSPropertyOp39
 70
     1
102
RTVSPropertyOp40
 70
     1
102
RTVSPropertyOp41
 70
     1
102
RTVSPropertyOp42
 70
     1
102
RTVSPropertyOp43
 70
     1
102
RTVSPropertyOp44
 70
     1
102
RTVSPropertyOp45
 70
     1
102
RTVSPropertyOp46
 70
     1
102
RTVSPropertyOp47
 70
     1
102
RTVSPropertyOp48
 70
     1
102
RTVSPropertyOp49
 70
     1
102
RTVSPropertyOp50
 70
     1
102
RTVSPropertyOp51
 70
     0
102
RTVSPropertyOp52
 70
     0
102
RTVSPropertyOp53
 70
     1
102
RTVSPropertyOp54
 70
     1
102
RTVSPropertyOp55
 70
     1
102
RTVSPropertyOp56
 70
     1
102
RTVSPropertyOp57
 70
     1
102
RTVSPropertyOp58
 70
     1
102
RTVSPropertyOp59
 70
     1
102
RTVSPropertyOp60
 70
     1
102
RTVSPropertyOp61
 70
     1
102
RTVSPropertyOp62
 70
     1
  0
XRECORD
  5
542
102
{ACAD_REACTORS
330
541
102
}
330
541
100
AcDbXrecord
280
     1
102
RTVSPost2010Prop28
280
     0
102
RTVSPost2010PropOp28
 70
     1
102
RTVSPost2010Prop29
280
     1
102
RTVSPost2010PropOp29
 70
     1
102
RTVSPost2010Prop30
280
     1
102
RTVSPost2010PropOp30
 70
     1
102
RTVSPost2010Prop31
280
     0
102
RTVSPost2010PropOp31
 70
     1
102
RTVSPost2010Prop32
280
     0
102
RTVSPost2010PropOp32
 70
     1
102
RTVSPost2010Prop33
280
     0
102
RTVSPost2010PropOp33
 70
     1
102
RTVSPost2010Prop34
280
     0
102
RTVSPost2010PropOp34
 70
     1
102
RTVSPost2010Prop35
280
     0
102
RTVSPost2010PropOp35
 70
     1
102
RTVSPost2010Prop36
280
     0
102
RTVSPost2010PropOp36
 70
     1
102
RTVSPost2010Prop37
 90
       50
102
RTVSPost2010PropOp37
 70
     1
102
RTVSPost2010Prop38
140
0.0
102
RTVSPost2010PropOp38
 70
     1
102
RTVSPost2010Prop39
140
1.0
102
RTVSPost2010PropOp39
 70
     1
102
RTVSPost2010Prop40
 90
        0
102
RTVSPost2010PropOp40
 70
     1
102
RTVSPost2010Prop41ColorIndex
 90
       18
102
RTVSPost2010Prop41ColorRGB
 90
        0
102
RTVSPost2010PropOp41
 70
     1
102
RTVSPost2010Prop42
 90
       50
102
RTVSPost2010PropOp42
 70
     1
102
RTVSPost2010Prop43
 90
        3
102
RTVSPost2010PropOp43
 70
     1
102
RTVSPost2010Prop44ColorIndex
 90
        5
102
RTVSPost2010Prop44ColorRGB
 90
      255
102
RTVSPost2010PropOp44
 70
     1
102
RTVSPost2010Prop45
280
     0
102
RTVSPost2010PropOp45
 70
     1
102
RTVSPost2010Prop46
 90
       50
102
RTVSPost2010PropOp46
 70
     1
102
RTVSPost2010Prop47
 90
       50
102
RTVSPost2010PropOp47
 70
     1
102
RTVSPost2010Prop48
 90
       50
102
RTVSPost2010PropOp48
 70
     1
102
RTVSPost2010Prop49
280
     0
102
RTVSPost2010PropOp49
 70
     1
102
RTVSPost2010Prop50
 90
       50
102
RTVSPost2010PropOp50
 70
     1
102
RTVSPost2010Prop51ColorIndex
 90
      256
102
RTVSPost2010Prop51ColorRGB
 90
-16777216
102
RTVSPost2010PropOp51
 70
     0
102
RTVSPost2010Prop52
140
1.0
102
RTVSPost2010PropOp52
 70
     0
102
RTVSPost2010Prop53
 90
        2
102
RTVSPost2010PropOp53
 70
     1
102
RTVSPost2010Prop54
  1
strokes_ogs.tif
102
RTVSPost2010PropOp54
 70
     1
102
RTVSPost2010Prop55
280
     0
102
RTVSPost2010PropOp55
 70
     1
102
RTVSPost2010Prop56
140
1.0
102
RTVSPost2010PropOp56
 70
     1
102
RTVSPost2010Prop57
140
1.0
102
RTVSPost2010PropOp57
 70
     1
102
RTVSPropertyOp0
 70
     1
102
RTVSPropertyOp1
 70
     1
102
RTVSPropertyOp2
 70
     1
102
RTVSPropertyOp3
 70
     1
102
RTVSPropertyOp4
 70
     1
102
RTVSPropertyOp5
 70
     1
102
RTVSPropertyOp6
 70
     1
102
RTVSPropertyOp7
 70
     1
102
RTVSPropertyOp8
 70
     1
102
RTVSPropertyOp9
 70
     1
102
RTVSPropertyOp10
 70
     1
102
RTVSPropertyOp11
 70
     1
102
RTVSPropertyOp12
 70
     1
102
RTVSPropertyOp13
 70
     1
102
RTVSPropertyOp14
 70
     1
102
RTVSPropertyOp15
 70
     1
102
RTVSPropertyOp16
 70
     1
102
RTVSPropertyOp17
 70
     1
102
RTVSPropertyOp18
 70
     1
102
RTVSPropertyOp19
 70
     1
102
RTVSPropertyOp20
 70
     1
102
RTVSPropertyOp21
 70
     1
102
RTVSPropertyOp22
 70
     1
102
RTVSPropertyOp23
 70
     1
102
RTVSPropertyOp24
 70
     1
102
RTVSPropertyOp25
 70
     1
102
RTVSPropertyOp26
 70
     1
102
RTVSPropertyOp27
 70
     1
102
RTVSPropertyOp28
 70
     1
102
RTVSPropertyOp29
 70
     1
102
RTVSPropertyOp30
 70
     1
102
RTVSPropertyOp31
 70
     1
102
RTVSPropertyOp32
 70
     1
102
RTVSPropertyOp33
 70
     1
102
RTVSPropertyOp34
 70
     1
102
RTVSPropertyOp35
 70
     1
102
RTVSPropertyOp36
 70
     1
102
RTVSPropertyOp37
 70
     1
102
RTVSPropertyOp38
 70
     1
102
RTVSPropertyOp39
 70
     1
102
RTVSPropertyOp40
 70
     1
102
RTVSPropertyOp41
 70
     1
102
RTVSPropertyOp42
 70
     1
102
RTVSPropertyOp43
 70
     1
102
RTVSPropertyOp44
 70
     1
102
RTVSPropertyOp45
 70
     1
102
RTVSPropertyOp46
 70
     1
102
RTVSPropertyOp47
 70
     1
102
RTVSPropertyOp48
 70
     1
102
RTVSPropertyOp49
 70
     1
102
RTVSPropertyOp50
 70
     1
102
RTVSPropertyOp51
 70
     0
102
RTVSPropertyOp52
 70
     0
102
RTVSPropertyOp53
 70
     1
102
RTVSPropertyOp54
 70
     1
102
RTVSPropertyOp55
 70
     1
102
RTVSPropertyOp56
 70
     1
102
RTVSPropertyOp57
 70
     1
102
RTVSPropertyOp58
 70
     1
102
RTVSPropertyOp59
 70
     1
102
RTVSPropertyOp60
 70
     1
102
RTVSPropertyOp61
 70
     1
102
RTVSPropertyOp62
 70
     1
  0
XRECORD
  5
560
102
{ACAD_REACTORS
330
55F
102
}
330
55F
100
AcDbXrecord
280
     1
102
RTVSPost2010Prop28
280
     0
102
RTVSPost2010PropOp28
 70
     1
102
RTVSPost2010Prop29
280
     1
102
RTVSPost2010PropOp29
 70
     1
102
RTVSPost2010Prop30
280
     1
102
RTVSPost2010PropOp30
 70
     1
102
RTVSPost2010Prop31
280
     0
102
RTVSPost2010PropOp31
 70
     1
102
RTVSPost2010Prop32
280
     0
102
RTVSPost2010PropOp32
 70
     1
102
RTVSPost2010Prop33
280
     0
102
RTVSPost2010PropOp33
 70
     1
102
RTVSPost2010Prop34
280
     0
102
RTVSPost2010PropOp34
 70
     1
102
RTVSPost2010Prop35
280
     0
102
RTVSPost2010PropOp35
 70
     1
102
RTVSPost2010Prop36
280
     0
102
RTVSPost2010PropOp36
 70
     1
102
RTVSPost2010Prop37
 90
       50
102
RTVSPost2010PropOp37
 70
     1
102
RTVSPost2010Prop38
140
0.0
102
RTVSPost2010PropOp38
 70
     1
102
RTVSPost2010Prop39
140
1.0
102
RTVSPost2010PropOp39
 70
     1
102
RTVSPost2010Prop40
 90
        0
102
RTVSPost2010PropOp40
 70
     1
102
RTVSPost2010Prop41ColorIndex
 90
       18
102
RTVSPost2010Prop41ColorRGB
 90
        0
102
RTVSPost2010PropOp41
 70
     1
102
RTVSPost2010Prop42
 90
       50
102
RTVSPost2010PropOp42
 70
     1
102
RTVSPost2010Prop43
 90
        3
102
RTVSPost2010PropOp43
 70
     1
102
RTVSPost2010Prop44ColorIndex
 90
        5
102
RTVSPost2010Prop44ColorRGB
 90
      255
102
RTVSPost2010PropOp44
 70
     1
102
RTVSPost2010Prop45
280
     0
102
RTVSPost2010PropOp45
 70
     1
102
RTVSPost2010Prop46
 90
       50
102
RTVSPost2010PropOp46
 70
     1
102
RTVSPost2010Prop47
 90
       50
102
RTVSPost2010PropOp47
 70
     1
102
RTVSPost2010Prop48
 90
       50
102
RTVSPost2010PropOp48
 70
     1
102
RTVSPost2010Prop49
280
     0
102
RTVSPost2010PropOp49
 70
     1
102
RTVSPost2010Prop50
 90
       50
102
RTVSPost2010PropOp50
 70
     1
102
RTVSPost2010Prop51ColorIndex
 90
      256
102
RTVSPost2010Prop51ColorRGB
 90
-16777216
102
RTVSPost2010PropOp51
 70
     0
102
RTVSPost2010Prop52
140
1.0
102
RTVSPost2010PropOp52
 70
     0
102
RTVSPost2010Prop53
 90
        2
102
RTVSPost2010PropOp53
 70
     1
102
RTVSPost2010Prop54
  1
strokes_ogs.tif
102
RTVSPost2010PropOp54
 70
     1
102
RTVSPost2010Prop55
280
     0
102
RTVSPost2010PropOp55
 70
     1
102
RTVSPost2010Prop56
140
1.0
102
RTVSPost2010PropOp56
 70
     1
102
RTVSPost2010Prop57
140
1.0
102
RTVSPost2010PropOp57
 70
     1
102
RTVSPropertyOp0
 70
     1
102
RTVSPropertyOp1
 70
     1
102
RTVSPropertyOp2
 70
     1
102
RTVSPropertyOp3
 70
     1
102
RTVSPropertyOp4
 70
     1
102
RTVSPropertyOp5
 70
     1
102
RTVSPropertyOp6
 70
     1
102
RTVSPropertyOp7
 70
     1
102
RTVSPropertyOp8
 70
     1
102
RTVSPropertyOp9
 70
     1
102
RTVSPropertyOp10
 70
     1
102
RTVSPropertyOp11
 70
     1
102
RTVSPropertyOp12
 70
     1
102
RTVSPropertyOp13
 70
     1
102
RTVSPropertyOp14
 70
     1
102
RTVSPropertyOp15
 70
     1
102
RTVSPropertyOp16
 70
     1
102
RTVSPropertyOp17
 70
     1
102
RTVSPropertyOp18
 70
     1
102
RTVSPropertyOp19
 70
     1
102
RTVSPropertyOp20
 70
     1
102
RTVSPropertyOp21
 70
     1
102
RTVSPropertyOp22
 70
     1
102
RTVSPropertyOp23
 70
     1
102
RTVSPropertyOp24
 70
     1
102
RTVSPropertyOp25
 70
     1
102
RTVSPropertyOp26
 70
     1
102
RTVSPropertyOp27
 70
     1
102
RTVSPropertyOp28
 70
     1
102
RTVSPropertyOp29
 70
     1
102
RTVSPropertyOp30
 70
     1
102
RTVSPropertyOp31
 70
     1
102
RTVSPropertyOp32
 70
     1
102
RTVSPropertyOp33
 70
     1
102
RTVSPropertyOp34
 70
     1
102
RTVSPropertyOp35
 70
     1
102
RTVSPropertyOp36
 70
     1
102
RTVSPropertyOp37
 70
     1
102
RTVSPropertyOp38
 70
     1
102
RTVSPropertyOp39
 70
     1
102
RTVSPropertyOp40
 70
     1
102
RTVSPropertyOp41
 70
     1
102
RTVSPropertyOp42
 70
     1
102
RTVSPropertyOp43
 70
     1
102
RTVSPropertyOp44
 70
     1
102
RTVSPropertyOp45
 70
     1
102
RTVSPropertyOp46
 70
     1
102
RTVSPropertyOp47
 70
     1
102
RTVSPropertyOp48
 70
     1
102
RTVSPropertyOp49
 70
     1
102
RTVSPropertyOp50
 70
     1
102
RTVSPropertyOp51
 70
     0
102
RTVSPropertyOp52
 70
     0
102
RTVSPropertyOp53
 70
     1
102
RTVSPropertyOp54
 70
     1
102
RTVSPropertyOp55
 70
     1
102
RTVSPropertyOp56
 70
     1
102
RTVSPropertyOp57
 70
     1
102
RTVSPropertyOp58
 70
     1
102
RTVSPropertyOp59
 70
     1
102
RTVSPropertyOp60
 70
     1
102
RTVSPropertyOp61
 70
     1
102
RTVSPropertyOp62
 70
     1
  0
ACDBASSOCGEOMDEPENDENCY
  5
2DC
330
2DB
100
AcDbAssocDependency
 90
        2
 90
        0
290
     1
290
     1
290
     1
290
     1
 90
   -10000
330
28B
290
     0
330
0
330
0
360
0
 90
        1
100
AcDbAssocGeomDependency
 90
        0
290
     1
  1
AcDbAssocSingleEdgePersSubentId
290
     0
  0
ACDBASSOCDEPENDENCY
  5
367
330
2DB
100
AcDbAssocDependency
 90
        2
 90
        0
290
     0
290
     1
290
     1
290
     1
 90
        0
330
364
290
     0
330
0
330
0
360
368
 90
       50
  0
ACDBASSOCGEOMDEPENDENCY
  5
2E8
330
2DB
100
AcDbAssocDependency
 90
        2
 90
        0
290
     1
290
     1
290
     1
290
     1
 90
   -10000
330
28D
290
     0
330
0
330
0
360
0
 90
        5
100
AcDbAssocGeomDependency
 90
        0
290
     1
  1
AcDbAssocSingleEdgePersSubentId
290
     0
  0
ACDBASSOCVALUEDEPENDENCY
  5
36B
330
2DB
100
AcDbAssocDependency
 90
        2
 90
        0
290
     1
290
     0
290
     1
290
     1
 90
        0
330
36A
290
     0
330
0
330
0
360
0
 90
       51
100
AcDbAssocValueDependency
 90
        0
  1

 90
        2
  0
ACDBASSOCGEOMDEPENDENCY
  5
2EC
330
2DB
100
AcDbAssocDependency
 90
        2
 90
        0
290
     1
290
     1
290
     1
290
     1
 90
   -10000
330
291
290
     0
330
0
330
0
360
0
 90
        9
100
AcDbAssocGeomDependency
 90
        0
290
     1
  1
AcDbAssocSingleEdgePersSubentId
290
     0
  0
ACDBASSOCVALUEDEPENDENCY
  5
361
330
2DB
100
AcDbAssocDependency
 90
        2
 90
        0
290
     1
290
     0
290
     1
290
     1
 90
        0
330
360
290
     0
330
0
330
0
360
0
 90
       47
100
AcDbAssocValueDependency
 90
        0
  1

 90
        2
  0
ACDBASSOCGEOMDEPENDENCY
  5
2DE
330
2DB
100
AcDbAssocDependency
 90
        2
 90
        0
290
     1
290
     1
290
     1
290
     1
 90
   -10000
330
28C
290
     0
330
0
330
0
360
0
 90
        3
100
AcDbAssocGeomDependency
 90
        0
290
     1
  1
AcDbAssocSingleEdgePersSubentId
290
     0
  0
ACDBASSOCGEOMDEPENDENCY
  5
2EA
330
2DB
100
AcDbAssocDependency
 90
        2
 90
        0
290
     1
290
     1
290
     1
290
     1
 90
   -10000
330
28F
290
     0
330
0
330
0
360
0
 90
        7
100
AcDbAssocGeomDependency
 90
        0
290
     1
  1
AcDbAssocSingleEdgePersSubentId
290
     0
  0
ACDBASSOCGEOMDEPENDENCY
  5
2EE
330
2DB
100
AcDbAssocDependency
 90
        2
 90
        0
290
     1
290
     1
290
     1
290
     1
 90
   -10000
330
293
290
     0
330
0
330
0
360
0
 90
       11
100
AcDbAssocGeomDependency
 90
        0
290
     1
  1
AcDbAssocSingleEdgePersSubentId
290
     0
  0
ACDBASSOCGEOMDEPENDENCY
  5
2EB
330
2DB
100
AcDbAssocDependency
 90
        2
 90
        0
290
     1
290
     1
290
     1
290
     1
 90
   -10000
330
290
290
     0
330
0
330
0
360
0
 90
        8
100
AcDbAssocGeomDependency
 90
        0
290
     1
  1
AcDbAssocSingleEdgePersSubentId
290
     0
  0
ACDBASSOCDEPENDENCY
  5
36C
330
2DB
100
AcDbAssocDependency
 90
        2
 90
        0
290
     0
290
     1
290
     1
290
     1
 90
        0
330
369
290
     0
330
0
330
0
360
36D
 90
       52
  0
ACDBASSOCGEOMDEPENDENCY
  5
2EF
330
2DB
100
AcDbAssocDependency
 90
        2
 90
        0
290
     1
290
     1
290
     1
290
     1
 90
   -10000
330
294
290
     0
330
0
330
0
360
0
 90
       12
100
AcDbAssocGeomDependency
 90
        0
290
     1
  1
AcDbAssocSingleEdgePersSubentId
290
     0
  0
ACDBASSOCGEOMDEPENDENCY
  5
2DF
330
2DB
100
AcDbAssocDependency
 90
        2
 90
        0
290
     1
290
     1
290
     1
290
     1
 90
   -10000
330
2C0
290
     0
330
0
330
0
360
0
 90
        4
100
AcDbAssocGeomDependency
 90
        0
290
     1
  1
AcDbAssocSingleEdgePersSubentId
290
     0
  0
ACDBASSOCGEOMDEPENDENCY
  5
2E9
330
2DB
100
AcDbAssocDependency
 90
        2
 90
        0
290
     1
290
     1
290
     1
290
     1
 90
   -10000
330
28E
290
     0
330
0
330
0
360
0
 90
        6
100
AcDbAssocGeomDependency
 90
        0
290
     1
  1
AcDbAssocSingleEdgePersSubentId
290
     0
  0
ACDBASSOCDEPENDENCY
  5
362
330
2DB
100
AcDbAssocDependency
 90
        2
 90
        0
290
     0
290
     1
290
     1
290
     1
 90
        0
330
35F
290
     0
330
0
330
0
360
363
 90
       48
  0
ACDBASSOCGEOMDEPENDENCY
  5
2ED
330
2DB
100
AcDbAssocDependency
 90
        2
 90
        0
290
     1
290
     1
290
     1
290
     1
 90
   -10000
330
292
290
     0
330
0
330
0
360
0
 90
       10
100
AcDbAssocGeomDependency
 90
        0
290
     1
  1
AcDbAssocSingleEdgePersSubentId
290
     0
  0
ACDBASSOCGEOMDEPENDENCY
  5
2DD
330
2DB
100
AcDbAssocDependency
 90
        2
 90
        0
290
     1
290
     1
290
     1
290
     1
 90
   -10000
330
2BF
290
     0
330
0
330
0
360
0
 90
        2
100
AcDbAssocGeomDependency
 90
        0
290
     1
  1
AcDbAssocSingleEdgePersSubentId
290
     0
  0
ACDBASSOCVALUEDEPENDENCY
  5
366
330
2DB
100
AcDbAssocDependency
 90
        2
 90
        0
290
     1
290
     0
290
     1
290
     1
 90
        0
330
365
290
     0
330
0
330
0
360
0
 90
       49
100
AcDbAssocValueDependency
 90
        0
  1

 90
        2
  0
ACDBASSOCGEOMDEPENDENCY
  5
329
330
2DB
100
AcDbAssocDependency
 90
        2
 90
        0
290
     1
290
     1
290
     1
290
     1
 90
   -10000
330
327
290
     0
330
0
330
0
360
0
 90
       37
100
AcDbAssocGeomDependency
 90
        0
290
     1
  1
AcDbAssocSingleEdgePersSubentId
290
     0
  0
ACDBASSOCVALUEDEPENDENCY
  5
45A
330
2DB
100
AcDbAssocDependency
 90
        2
 90
        0
290
     1
290
     0
290
     1
290
     1
 90
        0
330
459
290
     0
330
0
330
0
360
0
 90
      124
100
AcDbAssocValueDependency
 90
        0
  1

 90
       10
  0
ACDBASSOCDEPENDENCY
  5
460
330
2DB
100
AcDbAssocDependency
 90
        2
 90
        0
290
     0
290
     1
290
     1
290
     1
 90
        0
330
45D
290
     0
330
0
330
0
360
461
 90
      127
  0
ACDBASSOCVALUEDEPENDENCY
  5
464
330
2DB
100
AcDbAssocDependency
 90
        2
 90
        0
290
     1
290
     0
290
     1
290
     1
 90
        0
330
463
290
     0
330
0
330
0
360
0
 90
      128
100
AcDbAssocValueDependency
 90
        0
  1

 90
       10
  0
ACDBASSOCDEPENDENCY
  5
3E7
330
2DB
100
AcDbAssocDependency
 90
        2
 90
        0
290
     0
290
     1
290
     1
290
     1
 90
        0
330
3E4
290
     0
330
0
330
0
360
3E8
 90
       95
  0
ACDBASSOCVALUEDEPENDENCY
  5
3E6
330
2DB
100
AcDbAssocDependency
 90
        2
 90
        0
290
     1
290
     0
290
     1
290
     1
 90
        0
330
3E5
290
     0
330
0
330
0
360
0
 90
       94
100
AcDbAssocValueDependency
 90
        0
  1

 90
       97
  0
ACDBASSOCGEOMDEPENDENCY
  5
2F8
330
2DB
100
AcDbAssocDependency
 90
        2
 90
        0
290
     1
290
     1
290
     1
290
     1
 90
   -10000
330
295
290
     0
330
0
330
0
360
0
 90
       13
100
AcDbAssocGeomDependency
 90
        0
290
     1
  1
AcDbAssocSingleEdgePersSubentId
290
     0
  0
ACDBASSOCDEPENDENCY
  5
40F
330
2DB
100
AcDbAssocDependency
 90
        2
 90
        0
290
     0
290
     1
290
     1
290
     1
 90
        0
330
40A
290
     0
330
0
330
0
360
410
 90
       99
  0
ACDBASSOCVALUEDEPENDENCY
  5
413
330
2DB
100
AcDbAssocDependency
 90
        2
 90
        0
290
     1
290
     0
290
     1
290
     1
 90
        0
330
412
290
     0
330
0
330
0
360
0
 90
      100
100
AcDbAssocValueDependency
 90
        0
  1

 40
10.3
  0
ACDBASSOCDEPENDENCY
  5
37B
330
2DB
100
AcDbAssocDependency
 90
        2
 90
        0
290
     0
290
     1
290
     1
290
     1
 90
        0
330
378
290
     0
330
0
330
0
360
37C
 90
       58
  0
ACDBASSOCVALUEDEPENDENCY
  5
37F
330
2DB
100
AcDbAssocDependency
 90
        2
 90
        0
290
     1
290
     0
290
     1
290
     1
 90
        0
330
37E
290
     0
330
0
330
0
360
0
 90
       59
100
AcDbAssocValueDependency
 90
        0
  1

 90
        2
  0
ACDBASSOCGEOMDEPENDENCY
  5
2FC
330
2DB
100
AcDbAssocDependency
 90
        2
 90
        0
290
     1
290
     1
290
     1
290
     1
 90
   -10000
330
29B
290
     0
330
0
330
0
360
0
 90
       17
100
AcDbAssocGeomDependency
 90
        0
290
     1
  1
AcDbAssocSingleEdgePersSubentId
290
     0
  0
ACDBASSOCGEOMDEPENDENCY
  5
300
330
2DB
100
AcDbAssocDependency
 90
        2
 90
        0
290
     1
290
     1
290
     1
290
     1
 90
   -10000
330
29F
290
     0
330
0
330
0
360
0
 90
       21
100
AcDbAssocGeomDependency
 90
        0
290
     1
  1
AcDbAssocSingleEdgePersSubentId
290
     0
  0
ACDBASSOCGEOMDEPENDENCY
  5
2FE
330
2DB
100
AcDbAssocDependency
 90
        2
 90
        0
290
     1
290
     1
290
     1
290
     1
 90
   -10000
330
29D
290
     0
330
0
330
0
360
0
 90
       19
100
AcDbAssocGeomDependency
 90
        0
290
     1
  1
AcDbAssocSingleEdgePersSubentId
290
     0
  0
ACDBASSOCGEOMDEPENDENCY
  5
2FA
330
2DB
100
AcDbAssocDependency
 90
        2
 90
        0
290
     1
290
     1
290
     1
290
     1
 90
   -10000
330
299
290
     0
330
0
330
0
360
0
 90
       15
100
AcDbAssocGeomDependency
 90
        0
290
     1
  1
AcDbAssocSingleEdgePersSubentId
290
     0
  0
ACDBASSOCDEPENDENCY
  5
371
330
2DB
100
AcDbAssocDependency
 90
        2
 90
        0
290
     0
290
     1
290
     1
290
     1
 90
        0
330
36E
290
     0
330
0
330
0
360
372
 90
       54
  0
ACDBASSOCVALUEDEPENDENCY
  5
375
330
2DB
100
AcDbAssocDependency
 90
        2
 90
        0
290
     1
290
     0
290
     1
290
     1
 90
        0
330
374
290
     0
330
0
330
0
360
0
 90
       55
100
AcDbAssocValueDependency
 90
        0
  1

 90
        2
  0
ACDBASSOCDEPENDENCY
  5
376
330
2DB
100
AcDbAssocDependency
 90
        2
 90
        0
290
     0
290
     1
290
     1
290
     1
 90
        0
330
373
290
     0
330
0
330
0
360
377
 90
       56
  0
ACDBASSOCDEPENDENCY
  5
414
330
2DB
100
AcDbAssocDependency
 90
        2
 90
        0
290
     0
290
     1
290
     1
290
     1
 90
        0
330
411
290
     0
330
0
330
0
360
415
 90
      101
  0
ACDBASSOCVALUEDEPENDENCY
  5
37A
330
2DB
100
AcDbAssocDependency
 90
        2
 90
        0
290
     1
290
     0
290
     1
290
     1
 90
        0
330
379
290
     0
330
0
330
0
360
0
 90
       57
100
AcDbAssocValueDependency
 90
        0
  1

 90
        2
  0
ACDBASSOCGEOMDEPENDENCY
  5
2F9
330
2DB
100
AcDbAssocDependency
 90
        2
 90
        0
290
     1
290
     1
290
     1
290
     1
 90
   -10000
330
296
290
     0
330
0
330
0
360
0
 90
       14
100
AcDbAssocGeomDependency
 90
        0
290
     1
  1
AcDbAssocSingleEdgePersSubentId
290
     0
  0
ACDBASSOCGEOMDEPENDENCY
  5
2FD
330
2DB
100
AcDbAssocDependency
 90
        2
 90
        0
290
     1
290
     1
290
     1
290
     1
 90
   -10000
330
29C
290
     0
330
0
330
0
360
0
 90
       18
100
AcDbAssocGeomDependency
 90
        0
290
     1
  1
AcDbAssocSingleEdgePersSubentId
290
     0
  0
ACDBASSOCGEOMDEPENDENCY
  5
2FB
330
2DB
100
AcDbAssocDependency
 90
        2
 90
        0
290
     1
290
     1
290
     1
290
     1
 90
   -10000
330
29A
290
     0
330
0
330
0
360
0
 90
       16
100
AcDbAssocGeomDependency
 90
        0
290
     1
  1
AcDbAssocSingleEdgePersSubentId
290
     0
  0
ACDBASSOCGEOMDEPENDENCY
  5
2FF
330
2DB
100
AcDbAssocDependency
 90
        2
 90
        0
290
     1
290
     1
290
     1
290
     1
 90
   -10000
330
29E
290
     0
330
0
330
0
360
0
 90
       20
100
AcDbAssocGeomDependency
 90
        0
290
     1
  1
AcDbAssocSingleEdgePersSubentId
290
     0
  0
ACDBASSOCVALUEDEPENDENCY
  5
370
330
2DB
100
AcDbAssocDependency
 90
        2
 90
        0
290
     1
290
     0
290
     1
290
     1
 90
        0
330
36F
290
     0
330
0
330
0
360
0
 90
       53
100
AcDbAssocValueDependency
 90
        0
  1

 90
        2
  0
ACDBASSOCDEPENDENCY
  5
38A
330
2DB
100
AcDbAssocDependency
 90
        2
 90
        0
290
     0
290
     1
290
     1
290
     1
 90
        0
330
387
290
     0
330
0
330
0
360
38B
 90
       64
  0
ACDBASSOCDEPENDENCY
  5
479
330
2DB
100
AcDbAssocDependency
 90
        2
 90
        0
290
     0
290
     1
290
     1
290
     1
 90
        0
330
476
290
     0
330
0
330
0
360
47A
 90
      137
  0
ACDBASSOCGEOMDEPENDENCY
  5
30D
330
2DB
100
AcDbAssocDependency
 90
        2
 90
        0
290
     1
290
     1
290
     1
290
     1
 90
   -10000
330
2A0
290
     0
330
0
330
0
360
0
 90
       22
100
AcDbAssocGeomDependency
 90
        0
290
     1
  1
AcDbAssocSingleEdgePersSubentId
290
     0
  0
ACDBASSOCGEOMDEPENDENCY
  5
30F
330
2DB
100
AcDbAssocDependency
 90
        2
 90
        0
290
     1
290
     1
290
     1
290
     1
 90
   -10000
330
301
290
     0
330
0
330
0
360
0
 90
       24
100
AcDbAssocGeomDependency
 90
        0
290
     1
  1
AcDbAssocSingleEdgePersSubentId
290
     0
  0
ACDBASSOCGEOMDEPENDENCY
  5
317
330
2DB
100
AcDbAssocDependency
 90
        2
 90
        0
290
     1
290
     1
290
     1
290
     1
 90
   -10000
330
315
290
     0
330
0
330
0
360
0
 90
       30
100
AcDbAssocGeomDependency
 90
        0
290
     1
  1
AcDbAssocSingleEdgePersSubentId
290
     0
  0
ACDBASSOCDEPENDENCY
  5
380
330
2DB
100
AcDbAssocDependency
 90
        2
 90
        0
290
     0
290
     1
290
     1
290
     1
 90
        0
330
37D
290
     0
330
0
330
0
360
381
 90
       60
  0
ACDBASSOCVALUEDEPENDENCY
  5
384
330
2DB
100
AcDbAssocDependency
 90
        2
 90
        0
290
     1
290
     0
290
     1
290
     1
 90
        0
330
383
290
     0
330
0
330
0
360
0
 90
       61
100
AcDbAssocValueDependency
 90
        0
  1

 90
        2
  0
ACDBASSOCVALUEDEPENDENCY
  5
478
330
2DB
100
AcDbAssocDependency
 90
        2
 90
        0
290
     1
290
     0
290
     1
290
     1
 90
        0
330
477
290
     0
330
0
330
0
360
0
 90
      136
100
AcDbAssocValueDependency
 90
        0
  1

 90
       10
  0
ACDBASSOCVALUEDEPENDENCY
  5
389
330
2DB
100
AcDbAssocDependency
 90
        2
 90
        0
290
     1
290
     0
290
     1
290
     1
 90
        0
330
388
290
     0
330
0
330
0
360
0
 90
       63
100
AcDbAssocValueDependency
 90
        0
  1

 90
        2
  0
ACDBASSOCGEOMDEPENDENCY
  5
30E
330
2DB
100
AcDbAssocDependency
 90
        2
 90
        0
290
     1
290
     1
290
     1
290
     1
 90
   -10000
330
302
290
     0
330
0
330
0
360
0
 90
       23
100
AcDbAssocGeomDependency
 90
        0
290
     1
  1
AcDbAssocSingleEdgePersSubentId
290
     0
  0
ACDBASSOCGEOMDEPENDENCY
  5
316
330
2DB
100
AcDbAssocDependency
 90
        2
 90
        0
290
     1
290
     1
290
     1
290
     1
 90
   -10000
330
314
290
     0
330
0
330
0
360
0
 90
       29
100
AcDbAssocGeomDependency
 90
        0
290
     1
  1
AcDbAssocSingleEdgePersSubentId
290
     0
  0
ACDBASSOCDEPENDENCY
  5
474
330
2DB
100
AcDbAssocDependency
 90
        2
 90
        0
290
     0
290
     1
290
     1
290
     1
 90
        0
330
471
290
     0
330
0
330
0
360
475
 90
      135
  0
ACDBASSOCGEOMDEPENDENCY
  5
318
330
2DB
100
AcDbAssocDependency
 90
        2
 90
        0
290
     1
290
     1
290
     1
290
     1
 90
   -10000
330
2AB
290
     0
330
0
330
0
360
0
 90
       31
100
AcDbAssocGeomDependency
 90
        0
290
     1
  1
AcDbAssocSingleEdgePersSubentId
290
     0
  0
ACDBASSOCDEPENDENCY
  5
39D
330
2DB
100
AcDbAssocDependency
 90
        2
 90
        0
290
     0
290
     1
290
     1
290
     1
 90
        0
330
39A
290
     0
330
0
330
0
360
39E
 90
       72
  0
ACDBASSOCGEOMDEPENDENCY
  5
391
330
2DB
100
AcDbAssocDependency
 90
        2
 90
        0
290
     1
290
     1
290
     1
290
     1
 90
   -10000
330
38D
290
     0
330
0
330
0
360
0
 90
       66
100
AcDbAssocGeomDependency
 90
        0
290
     1
  1
AcDbAssocSingleEdgePersSubentId
290
     0
  0
ACDBASSOCDEPENDENCY
  5
3CF
330
2DB
100
AcDbAssocDependency
 90
        2
 90
        0
290
     0
290
     1
290
     1
290
     1
 90
        0
330
3CC
290
     0
330
0
330
0
360
3D0
 90
       93
  0
ACDBASSOCVALUEDEPENDENCY
  5
3A8
330
2DB
100
AcDbAssocDependency
 90
        2
 90
        0
290
     1
290
     0
290
     1
290
     1
 90
        0
330
3A7
290
     0
330
0
330
0
360
0
 90
       76
100
AcDbAssocValueDependency
 90
        0
  1

 90
        2
  0
ACDBASSOCVALUEDEPENDENCY
  5
3B8
330
2DB
100
AcDbAssocDependency
 90
        2
 90
        0
290
     1
290
     0
290
     1
290
     1
 90
        0
330
3B7
290
     0
330
0
330
0
360
0
 90
       83
100
AcDbAssocValueDependency
 90
        0
  1

 90
        2
  0
ACDBASSOCVALUEDEPENDENCY
  5
39C
330
2DB
100
AcDbAssocDependency
 90
        2
 90
        0
290
     1
290
     0
290
     1
290
     1
 90
        0
330
39B
290
     0
330
0
330
0
360
0
 90
       71
100
AcDbAssocValueDependency
 90
        0
  1

 90
        2
  0
ACDBASSOCGEOMDEPENDENCY
  5
323
330
2DB
100
AcDbAssocDependency
 90
        2
 90
        0
290
     1
290
     1
290
     1
290
     1
 90
   -10000
330
2AD
290
     0
330
0
330
0
360
0
 90
       33
100
AcDbAssocGeomDependency
 90
        0
290
     1
  1
AcDbAssocSingleEdgePersSubentId
290
     0
  0
ACDBASSOCGEOMDEPENDENCY
  5
392
330
2DB
100
AcDbAssocDependency
 90
        2
 90
        0
290
     1
290
     1
290
     1
290
     1
 90
   -10000
330
38E
290
     0
330
0
330
0
360
0
 90
       67
100
AcDbAssocGeomDependency
 90
        0
290
     1
  1
AcDbAssocSingleEdgePersSubentId
290
     0
  0
ACDBASSOCGEOMDEPENDENCY
  5
3A5
330
2DB
100
AcDbAssocDependency
 90
        2
 90
        0
290
     1
290
     1
290
     1
290
     1
 90
   -10000
330
3A4
290
     0
330
0
330
0
360
0
 90
       75
100
AcDbAssocGeomDependency
 90
        0
290
     1
  1
AcDbAssocSingleEdgePersSubentId
290
     0
  0
ACDBASSOCVALUEDEPENDENCY
  5
3CE
330
2DB
100
AcDbAssocDependency
 90
        2
 90
        0
290
     1
290
     0
290
     1
290
     1
 90
        0
330
3CD
290
     0
330
0
330
0
360
0
 90
       92
100
AcDbAssocValueDependency
 90
        0
  1

 90
        2
  0
ACDBASSOCVALUEDEPENDENCY
  5
35C
330
2DB
100
AcDbAssocDependency
 90
        2
 90
        0
290
     1
290
     0
290
     1
290
     1
 90
        0
330
35B
290
     0
330
0
330
0
360
0
 90
       45
100
AcDbAssocValueDependency
 90
        0
  1

 90
        2
  0
ACDBASSOCDEPENDENCY
  5
35D
330
2DB
100
AcDbAssocDependency
 90
        2
 90
        0
290
     0
290
     1
290
     1
290
     1
 90
        0
330
35A
290
     0
330
0
330
0
360
35E
 90
       46
  0
ACDBASSOCDEPENDENCY
  5
42D
330
2DB
100
AcDbAssocDependency
 90
        2
 90
        0
290
     0
290
     1
290
     1
290
     1
 90
        0
330
42A
290
     0
330
0
330
0
360
42E
 90
      109
  0
ACDBASSOCVALUEDEPENDENCY
  5
356
330
2DB
100
AcDbAssocDependency
 90
        2
 90
        0
290
     1
290
     0
290
     1
290
     1
 90
        0
330
355
290
     0
330
0
330
0
360
0
 90
       43
100
AcDbAssocValueDependency
 90
        0
  1

 90
       97
  0
ACDBASSOCVALUEDEPENDENCY
  5
42C
330
2DB
100
AcDbAssocDependency
 90
        2
 90
        0
290
     1
290
     0
290
     1
290
     1
 90
        0
330
42B
290
     0
330
0
330
0
360
0
 90
      108
100
AcDbAssocValueDependency
 90
        0
  1

 40
10.3
  0
ACDBASSOCDEPENDENCY
  5
357
330
2DB
100
AcDbAssocDependency
 90
        2
 90
        0
290
     0
290
     1
290
     1
290
     1
 90
        0
330
354
290
     0
330
0
330
0
360
358
 90
       44
  0
ACDBASSOCDEPENDENCY
  5
385
330
2DB
100
AcDbAssocDependency
 90
        2
 90
        0
290
     0
290
     1
290
     1
290
     1
 90
        0
330
382
290
     0
330
0
330
0
360
386
 90
       62
  0
ACDBASSOCGEOMDEPENDENCY
  5
390
330
2DB
100
AcDbAssocDependency
 90
        2
 90
        0
290
     1
290
     1
290
     1
290
     1
 90
   -10000
330
38C
290
     0
330
0
330
0
360
0
 90
       65
100
AcDbAssocGeomDependency
 90
        0
290
     1
  1
AcDbAssocSingleEdgePersSubentId
290
     0
  0
ACDBASSOCVALUEDEPENDENCY
  5
40E
330
2DB
100
AcDbAssocDependency
 90
        2
 90
        0
290
     1
290
     0
290
     1
290
     1
 90
        0
330
40D
290
     0
330
0
330
0
360
0
 90
       98
100
AcDbAssocValueDependency
 90
        0
  1

 40
10.3
  0
ACDBASSOCGEOMDEPENDENCY
  5
393
330
2DB
100
AcDbAssocDependency
 90
        2
 90
        0
290
     1
290
     1
290
     1
290
     1
 90
   -10000
330
38F
290
     0
330
0
330
0
360
0
 90
       68
100
AcDbAssocGeomDependency
 90
        0
290
     1
  1
AcDbAssocSingleEdgePersSubentId
290
     0
  0
ACDBASSOCDEPENDENCY
  5
3CA
330
2DB
100
AcDbAssocDependency
 90
        2
 90
        0
290
     0
290
     1
290
     1
290
     1
 90
        0
330
3C7
290
     0
330
0
330
0
360
3CB
 90
       91
  0
ACDBASSOCDEPENDENCY
  5
3A9
330
2DB
100
AcDbAssocDependency
 90
        2
 90
        0
290
     0
290
     1
290
     1
290
     1
 90
        0
330
3A6
290
     0
330
0
330
0
360
3AA
 90
       77
  0
ACDBASSOCVALUEDEPENDENCY
  5
3AD
330
2DB
100
AcDbAssocDependency
 90
        2
 90
        0
290
     1
290
     0
290
     1
290
     1
 90
        0
330
3AC
290
     0
330
0
330
0
360
0
 90
       78
100
AcDbAssocValueDependency
 90
        0
  1

 90
        2
  0
ACDBASSOCVALUEDEPENDENCY
  5
455
330
2DB
100
AcDbAssocDependency
 90
        2
 90
        0
290
     1
290
     0
290
     1
290
     1
 90
        0
330
454
290
     0
330
0
330
0
360
0
 90
      122
100
AcDbAssocValueDependency
 90
        0
  1

 90
       10
  0
ACDBASSOCVALUEDEPENDENCY
  5
3A1
330
2DB
100
AcDbAssocDependency
 90
        2
 90
        0
290
     1
290
     0
290
     1
290
     1
 90
        0
330
3A0
290
     0
330
0
330
0
360
0
 90
       73
100
AcDbAssocValueDependency
 90
        0
  1

 90
        2
  0
ACDBASSOCDEPENDENCY
  5
3AE
330
2DB
100
AcDbAssocDependency
 90
        2
 90
        0
290
     0
290
     1
290
     1
290
     1
 90
        0
330
3AB
290
     0
330
0
330
0
360
3AF
 90
       79
  0
ACDBASSOCDEPENDENCY
  5
3A2
330
2DB
100
AcDbAssocDependency
 90
        2
 90
        0
290
     0
290
     1
290
     1
290
     1
 90
        0
330
39F
290
     0
330
0
330
0
360
3A3
 90
       74
  0
ACDBASSOCVALUEDEPENDENCY
  5
431
330
2DB
100
AcDbAssocDependency
 90
        2
 90
        0
290
     1
290
     0
290
     1
290
     1
 90
        0
330
430
290
     0
330
0
330
0
360
0
 90
      110
100
AcDbAssocValueDependency
 90
        0
  1

 40
10.3
  0
ACDBASSOCDEPENDENCY
  5
44B
330
2DB
100
AcDbAssocDependency
 90
        2
 90
        0
290
     0
290
     1
290
     1
290
     1
 90
        0
330
448
290
     0
330
0
330
0
360
44C
 90
      119
  0
ACDBASSOCGEOMDEPENDENCY
  5
3B3
330
2DB
100
AcDbAssocDependency
 90
        2
 90
        0
290
     1
290
     1
290
     1
290
     1
 90
   -10000
330
3B0
290
     0
330
0
330
0
360
0
 90
       80
100
AcDbAssocGeomDependency
 90
        0
290
     1
  1
AcDbAssocSingleEdgePersSubentId
290
     0
  0
ACDBASSOCGEOMDEPENDENCY
  5
3B4
330
2DB
100
AcDbAssocDependency
 90
        2
 90
        0
290
     1
290
     1
290
     1
290
     1
 90
   -10000
330
3B1
290
     0
330
0
330
0
360
0
 90
       81
100
AcDbAssocGeomDependency
 90
        0
290
     1
  1
AcDbAssocSingleEdgePersSubentId
290
     0
  0
ACDBASSOCGEOMDEPENDENCY
  5
3B5
330
2DB
100
AcDbAssocDependency
 90
        2
 90
        0
290
     1
290
     1
290
     1
290
     1
 90
   -10000
330
3B2
290
     0
330
0
330
0
360
0
 90
       82
100
AcDbAssocGeomDependency
 90
        0
290
     1
  1
AcDbAssocSingleEdgePersSubentId
290
     0
  0
ACDBASSOCDEPENDENCY
  5
3B9
330
2DB
100
AcDbAssocDependency
 90
        2
 90
        0
290
     0
290
     1
290
     1
290
     1
 90
        0
330
3B6
290
     0
330
0
330
0
360
3BA
 90
       84
  0
ACDBASSOCGEOMDEPENDENCY
  5
3C4
330
2DB
100
AcDbAssocDependency
 90
        2
 90
        0
290
     1
290
     1
290
     1
290
     1
 90
   -10000
330
3C1
290
     0
330
0
330
0
360
0
 90
       87
100
AcDbAssocGeomDependency
 90
        0
290
     1
  1
AcDbAssocSingleEdgePersSubentId
290
     0
  0
ACDBASSOCGEOMDEPENDENCY
  5
3C5
330
2DB
100
AcDbAssocDependency
 90
        2
 90
        0
290
     1
290
     1
290
     1
290
     1
 90
   -10000
330
3C2
290
     0
330
0
330
0
360
0
 90
       88
100
AcDbAssocGeomDependency
 90
        0
290
     1
  1
AcDbAssocSingleEdgePersSubentId
290
     0
  0
ACDBASSOCGEOMDEPENDENCY
  5
3C6
330
2DB
100
AcDbAssocDependency
 90
        2
 90
        0
290
     1
290
     1
290
     1
290
     1
 90
   -10000
330
3C3
290
     0
330
0
330
0
360
0
 90
       89
100
AcDbAssocGeomDependency
 90
        0
290
     1
  1
AcDbAssocSingleEdgePersSubentId
290
     0
  0
ACDBASSOCVALUEDEPENDENCY
  5
3C9
330
2DB
100
AcDbAssocDependency
 90
        2
 90
        0
290
     1
290
     0
290
     1
290
     1
 90
        0
330
3C8
290
     0
330
0
330
0
360
0
 90
       90
100
AcDbAssocValueDependency
 90
        0
  1

 90
        2
  0
ACDBASSOCVALUEDEPENDENCY
  5
3F1
330
2DB
100
AcDbAssocDependency
 90
        2
 90
        0
290
     1
290
     0
290
     1
290
     1
 90
        0
330
3F0
290
     0
330
0
330
0
360
0
 90
       96
100
AcDbAssocValueDependency
 90
        0
  1

 90
        2
  0
ACDBASSOCDEPENDENCY
  5
3F2
330
2DB
100
AcDbAssocDependency
 90
        2
 90
        0
290
     0
290
     1
290
     1
290
     1
 90
        0
330
3EF
290
     0
330
0
330
0
360
3F3
 90
       97
  0
ACDBASSOCVALUEDEPENDENCY
  5
418
330
2DB
100
AcDbAssocDependency
 90
        2
 90
        0
290
     1
290
     0
290
     1
290
     1
 90
        0
330
417
290
     0
330
0
330
0
360
0
 90
      102
100
AcDbAssocValueDependency
 90
        0
  1

 40
10.3
  0
ACDBASSOCDEPENDENCY
  5
419
330
2DB
100
AcDbAssocDependency
 90
        2
 90
        0
290
     0
290
     1
290
     1
290
     1
 90
        0
330
416
290
     0
330
0
330
0
360
41A
 90
      103
  0
ACDBASSOCVALUEDEPENDENCY
  5
41D
330
2DB
100
AcDbAssocDependency
 90
        2
 90
        0
290
     1
290
     0
290
     1
290
     1
 90
        0
330
41C
290
     0
330
0
330
0
360
0
 90
      104
100
AcDbAssocValueDependency
 90
        0
  1

 40
10.3
  0
ACDBASSOCDEPENDENCY
  5
41E
330
2DB
100
AcDbAssocDependency
 90
        2
 90
        0
290
     0
290
     1
290
     1
290
     1
 90
        0
330
41B
290
     0
330
0
330
0
360
41F
 90
      105
  0
ACDBASSOCVALUEDEPENDENCY
  5
422
330
2DB
100
AcDbAssocDependency
 90
        2
 90
        0
290
     1
290
     0
290
     1
290
     1
 90
        0
330
421
290
     0
330
0
330
0
360
0
 90
      106
100
AcDbAssocValueDependency
 90
        0
  1

 40
10.3
  0
ACDBASSOCDEPENDENCY
  5
423
330
2DB
100
AcDbAssocDependency
 90
        2
 90
        0
290
     0
290
     1
290
     1
290
     1
 90
        0
330
420
290
     0
330
0
330
0
360
424
 90
      107
  0
ACDBASSOCDEPENDENCY
  5
432
330
2DB
100
AcDbAssocDependency
 90
        2
 90
        0
290
     0
290
     1
290
     1
290
     1
 90
        0
330
42F
290
     0
330
0
330
0
360
433
 90
      111
  0
ACDBASSOCVALUEDEPENDENCY
  5
436
330
2DB
100
AcDbAssocDependency
 90
        2
 90
        0
290
     1
290
     0
290
     1
290
     1
 90
        0
330
435
290
     0
330
0
330
0
360
0
 90
      112
100
AcDbAssocValueDependency
 90
        0
  1

 40
10.3
  0
ACDBASSOCDEPENDENCY
  5
437
330
2DB
100
AcDbAssocDependency
 90
        2
 90
        0
290
     0
290
     1
290
     1
290
     1
 90
        0
330
434
290
     0
330
0
330
0
360
438
 90
      113
  0
ACDBASSOCVALUEDEPENDENCY
  5
43B
330
2DB
100
AcDbAssocDependency
 90
        2
 90
        0
290
     1
290
     0
290
     1
290
     1
 90
        0
330
43A
290
     0
330
0
330
0
360
0
 90
      114
100
AcDbAssocValueDependency
 90
        0
  1

 40
10.3
  0
ACDBASSOCDEPENDENCY
  5
43C
330
2DB
100
AcDbAssocDependency
 90
        2
 90
        0
290
     0
290
     1
290
     1
290
     1
 90
        0
330
439
290
     0
330
0
330
0
360
43D
 90
      115
  0
ACDBASSOCVALUEDEPENDENCY
  5
440
330
2DB
100
AcDbAssocDependency
 90
        2
 90
        0
290
     1
290
     0
290
     1
290
     1
 90
        0
330
43F
290
     0
330
0
330
0
360
0
 90
      116
100
AcDbAssocValueDependency
 90
        0
  1

 40
10.3
  0
ACDBASSOCDEPENDENCY
  5
441
330
2DB
100
AcDbAssocDependency
 90
        2
 90
        0
290
     0
290
     1
290
     1
290
     1
 90
        0
330
43E
290
     0
330
0
330
0
360
442
 90
      117
  0
ACDBASSOCVALUEDEPENDENCY
  5
44A
330
2DB
100
AcDbAssocDependency
 90
        2
 90
        0
290
     1
290
     0
290
     1
290
     1
 90
        0
330
449
290
     0
330
0
330
0
360
0
 90
      118
100
AcDbAssocValueDependency
 90
        0
  1

 90
       10
  0
ACDBASSOCVALUEDEPENDENCY
  5
44F
330
2DB
100
AcDbAssocDependency
 90
        2
 90
        0
290
     1
290
     0
290
     1
290
     1
 90
        0
330
44E
290
     0
330
0
330
0
360
0
 90
      120
100
AcDbAssocValueDependency
 90
        0
  1

 90
       10
  0
ACDBASSOCDEPENDENCY
  5
450
330
2DB
100
AcDbAssocDependency
 90
        2
 90
        0
290
     0
290
     1
290
     1
290
     1
 90
        0
330
44D
290
     0
330
0
330
0
360
451
 90
      121
  0
ACDBASSOCDEPENDENCY
  5
456
330
2DB
100
AcDbAssocDependency
 90
        2
 90
        0
290
     0
290
     1
290
     1
290
     1
 90
        0
330
453
290
     0
330
0
330
0
360
457
 90
      123
  0
ACDBASSOCDEPENDENCY
  5
45B
330
2DB
100
AcDbAssocDependency
 90
        2
 90
        0
290
     0
290
     1
290
     1
290
     1
 90
        0
330
458
290
     0
330
0
330
0
360
45C
 90
      125
  0
ACDBASSOCVALUEDEPENDENCY
  5
45F
330
2DB
100
AcDbAssocDependency
 90
        2
 90
        0
290
     1
290
     0
290
     1
290
     1
 90
        0
330
45E
290
     0
330
0
330
0
360
0
 90
      126
100
AcDbAssocValueDependency
 90
        0
  1

 40
10.3
  0
ACDBASSOCDEPENDENCY
  5
465
330
2DB
100
AcDbAssocDependency
 90
        2
 90
        0
290
     0
290
     1
290
     1
290
     1
 90
        0
330
462
290
     0
330
0
330
0
360
466
 90
      129
  0
ACDBASSOCVALUEDEPENDENCY
  5
469
330
2DB
100
AcDbAssocDependency
 90
        2
 90
        0
290
     1
290
     0
290
     1
290
     1
 90
        0
330
468
290
     0
330
0
330
0
360
0
 90
      130
100
AcDbAssocValueDependency
 90
        0
  1

 90
       10
  0
ACDBASSOCDEPENDENCY
  5
46A
330
2DB
100
AcDbAssocDependency
 90
        2
 90
        0
290
     0
290
     1
290
     1
290
     1
 90
        0
330
467
290
     0
330
0
330
0
360
46B
 90
      131
  0
ACDBASSOCVALUEDEPENDENCY
  5
46E
330
2DB
100
AcDbAssocDependency
 90
        2
 90
        0
290
     1
290
     0
290
     1
290
     1
 90
        0
330
46D
290
     0
330
0
330
0
360
0
 90
      132
100
AcDbAssocValueDependency
 90
        0
  1

 90
       10
  0
ACDBASSOCDEPENDENCY
  5
46F
330
2DB
100
AcDbAssocDependency
 90
        2
 90
        0
290
     0
290
     1
290
     1
290
     1
 90
        0
330
46C
290
     0
330
0
330
0
360
470
 90
      133
  0
ACDBASSOCVALUEDEPENDENCY
  5
473
330
2DB
100
AcDbAssocDependency
 90
        2
 90
        0
290
     1
290
     0
290
     1
290
     1
 90
        0
330
472
290
     0
330
0
330
0
360
0
 90
      134
100
AcDbAssocValueDependency
 90
        0
  1

 90
       10
  0
ACDBASSOCGEOMDEPENDENCY
  5
47E
330
2DB
100
AcDbAssocDependency
 90
        2
 90
        0
290
     1
290
     1
290
     1
290
     1
 90
   -10000
330
47D
290
     0
330
0
330
0
360
0
 90
      139
100
AcDbAssocGeomDependency
 90
        0
290
     1
  1
AcDbAssocSingleEdgePersSubentId
290
     0
  0
ACDBASSOCVALUEDEPENDENCY
  5
359
330
355
100
AcDbAssocDependency
 90
        2
 90
        0
290
     1
290
     0
290
     1
290
     1
 90
        0
330
336
290
     0
330
0
330
3E9
360
0
 90
        1
100
AcDbAssocValueDependency
 90
        0
  1

 90
       97
  0
ACDBASSOCVALUEDEPENDENCY
  5
3D7
330
35B
100
AcDbAssocDependency
 90
        2
 90
        0
290
     1
290
     0
290
     1
290
     1
 90
        0
330
337
290
     0
330
3D6
330
3D8
360
0
 90
        1
100
AcDbAssocValueDependency
 90
        0
  1

 90
        2
  0
ACDBASSOCVALUEDEPENDENCY
  5
3D6
330
360
100
AcDbAssocDependency
 90
        2
 90
        0
290
     1
290
     0
290
     1
290
     1
 90
        0
330
337
290
     0
330
3D5
330
3D7
360
0
 90
        1
100
AcDbAssocValueDependency
 90
        0
  1

 90
        2
  0
ACDBASSOCVALUEDEPENDENCY
  5
3D5
330
365
100
AcDbAssocDependency
 90
        2
 90
        0
290
     1
290
     0
290
     1
290
     1
 90
        0
330
337
290
     0
330
3D4
330
3D6
360
0
 90
        1
100
AcDbAssocValueDependency
 90
        0
  1

 90
        2
  0
ACDBASSOCVALUEDEPENDENCY
  5
3D4
330
36A
100
AcDbAssocDependency
 90
        2
 90
        0
290
     1
290
     0
290
     1
290
     1
 90
        0
330
337
290
     0
330
3D3
330
3D5
360
0
 90
        1
100
AcDbAssocValueDependency
 90
        0
  1

 90
        2
  0
ACDBASSOCVALUEDEPENDENCY
  5
3D3
330
36F
100
AcDbAssocDependency
 90
        2
 90
        0
290
     1
290
     0
290
     1
290
     1
 90
        0
330
337
290
     0
330
3D2
330
3D4
360
0
 90
        1
100
AcDbAssocValueDependency
 90
        0
  1

 90
        2
  0
ACDBASSOCVALUEDEPENDENCY
  5
3D2
330
374
100
AcDbAssocDependency
 90
        2
 90
        0
290
     1
290
     0
290
     1
290
     1
 90
        0
330
337
290
     0
330
3D1
330
3D3
360
0
 90
        1
100
AcDbAssocValueDependency
 90
        0
  1

 90
        2
  0
ACDBASSOCVALUEDEPENDENCY
  5
3D1
330
379
100
AcDbAssocDependency
 90
        2
 90
        0
290
     1
290
     0
290
     1
290
     1
 90
        0
330
337
290
     0
330
0
330
3D2
360
0
 90
        1
100
AcDbAssocValueDependency
 90
        0
  1

 90
        2
  0
ACDBASSOCVALUEDEPENDENCY
  5
3E1
330
37E
100
AcDbAssocDependency
 90
        2
 90
        0
290
     1
290
     0
290
     1
290
     1
 90
        0
330
337
290
     0
330
3E0
330
3E2
360
0
 90
        1
100
AcDbAssocValueDependency
 90
        0
  1

 90
        2
  0
ACDBASSOCVALUEDEPENDENCY
  5
3E0
330
383
100
AcDbAssocDependency
 90
        2
 90
        0
290
     1
290
     0
290
     1
290
     1
 90
        0
330
337
290
     0
330
3DF
330
3E1
360
0
 90
        1
100
AcDbAssocValueDependency
 90
        0
  1

 90
        2
  0
ACDBASSOCVALUEDEPENDENCY
  5
3DF
330
388
100
AcDbAssocDependency
 90
        2
 90
        0
290
     1
290
     0
290
     1
290
     1
 90
        0
330
337
290
     0
330
3DD
330
3E0
360
0
 90
        1
100
AcDbAssocValueDependency
 90
        0
  1

 90
        2
  0
ACDBASSOCVALUEDEPENDENCY
  5
3DD
330
39B
100
AcDbAssocDependency
 90
        2
 90
        0
290
     1
290
     0
290
     1
290
     1
 90
        0
330
337
290
     0
330
3DC
330
3DF
360
0
 90
        1
100
AcDbAssocValueDependency
 90
        0
  1

 90
        2
  0
ACDBASSOCVALUEDEPENDENCY
  5
3DC
330
3A0
100
AcDbAssocDependency
 90
        2
 90
        0
290
     1
290
     0
290
     1
290
     1
 90
        0
330
337
290
     0
330
3DB
330
3DD
360
0
 90
        1
100
AcDbAssocValueDependency
 90
        0
  1

 90
        2
  0
ACDBASSOCVALUEDEPENDENCY
  5
3DB
330
3A7
100
AcDbAssocDependency
 90
        2
 90
        0
290
     1
290
     0
290
     1
290
     1
 90
        0
330
337
290
     0
330
3DA
330
3DC
360
0
 90
        1
100
AcDbAssocValueDependency
 90
        0
  1

 90
        2
  0
ACDBASSOCVALUEDEPENDENCY
  5
3DA
330
3AC
100
AcDbAssocDependency
 90
        2
 90
        0
290
     1
290
     0
290
     1
290
     1
 90
        0
330
337
290
     0
330
3D9
330
3DB
360
0
 90
        1
100
AcDbAssocValueDependency
 90
        0
  1

 90
        2
  0
ACDBASSOCVALUEDEPENDENCY
  5
3D9
330
3B7
100
AcDbAssocDependency
 90
        2
 90
        0
290
     1
290
     0
290
     1
290
     1
 90
        0
330
337
290
     0
330
3D8
330
3DA
360
0
 90
        1
100
AcDbAssocValueDependency
 90
        0
  1

 90
        2
  0
ACDBASSOCVALUEDEPENDENCY
  5
3E2
330
3C8
100
AcDbAssocDependency
 90
        2
 90
        0
290
     1
290
     0
290
     1
290
     1
 90
        0
330
337
290
     0
330
3E1
330
3F4
360
0
 90
        1
100
AcDbAssocValueDependency
 90
        0
  1

 90
        2
  0
ACDBASSOCVALUEDEPENDENCY
  5
3D8
330
3CD
100
AcDbAssocDependency
 90
        2
 90
        0
290
     1
290
     0
290
     1
290
     1
 90
        0
330
337
290
     0
330
3D7
330
3D9
360
0
 90
        1
100
AcDbAssocValueDependency
 90
        0
  1

 90
        2
  0
ACDBASSOCVALUEDEPENDENCY
  5
3E9
330
3E5
100
AcDbAssocDependency
 90
        2
 90
        0
290
     1
290
     0
290
     1
290
     1
 90
        0
330
336
290
     0
330
359
330
0
360
0
 90
        1
100
AcDbAssocValueDependency
 90
        0
  1

 90
       97
  0
ACDBASSOCVALUEDEPENDENCY
  5
3F4
330
3F0
100
AcDbAssocDependency
 90
        2
 90
        0
290
     1
290
     0
290
     1
290
     1
 90
        0
330
337
290
     0
330
3E2
330
0
360
0
 90
        1
100
AcDbAssocValueDependency
 90
        0
  1

 90
        2
  0
ASSOCDIMDEPENDENCYBODY
  5
368
330
367
100
AcDbAssocDependencyBody
 90
        1
100
AcDbImpAssocDimDependencyBodyBase
 90
        1
  1
d5=mdf_width
100
AcDbAssocDimDependencyBody
 90
        1
  0
ASSOCDIMDEPENDENCYBODY
  5
36D
330
36C
100
AcDbAssocDependencyBody
 90
        1
100
AcDbImpAssocDimDependencyBodyBase
 90
        1
  1
d6=mdf_width
100
AcDbAssocDimDependencyBody
 90
        1
  0
ASSOCDIMDEPENDENCYBODY
  5
363
330
362
100
AcDbAssocDependencyBody
 90
        1
100
AcDbImpAssocDimDependencyBodyBase
 90
        1
  1
d4=mdf_width
100
AcDbAssocDimDependencyBody
 90
        1
  0
ASSOCDIMDEPENDENCYBODY
  5
461
330
460
100
AcDbAssocDependencyBody
 90
        1
100
AcDbImpAssocDimDependencyBodyBase
 90
        1
  1
d35=10.3
100
AcDbAssocDimDependencyBody
 90
        1
  0
ASSOCDIMDEPENDENCYBODY
  5
3E8
330
3E7
100
AcDbAssocDependencyBody
 90
        1
100
AcDbImpAssocDimDependencyBodyBase
 90
        1
  1
d20=pestaña
100
AcDbAssocDimDependencyBody
 90
        1
  0
ASSOCDIMDEPENDENCYBODY
  5
410
330
40F
100
AcDbAssocDependencyBody
 90
        1
100
AcDbImpAssocDimDependencyBodyBase
 90
        1
  1
d21=10.3
100
AcDbAssocDimDependencyBody
 90
        1
  0
ASSOCDIMDEPENDENCYBODY
  5
37C
330
37B
100
AcDbAssocDependencyBody
 90
        1
100
AcDbImpAssocDimDependencyBodyBase
 90
        1
  1
d9=mdf_width
100
AcDbAssocDimDependencyBody
 90
        1
  0
ASSOCDIMDEPENDENCYBODY
  5
372
330
371
100
AcDbAssocDependencyBody
 90
        1
100
AcDbImpAssocDimDependencyBodyBase
 90
        1
  1
d7=mdf_width
100
AcDbAssocDimDependencyBody
 90
        1
  0
ASSOCDIMDEPENDENCYBODY
  5
377
330
376
100
AcDbAssocDependencyBody
 90
        1
100
AcDbImpAssocDimDependencyBodyBase
 90
        1
  1
d8=mdf_width
100
AcDbAssocDimDependencyBody
 90
        1
  0
ASSOCDIMDEPENDENCYBODY
  5
415
330
414
100
AcDbAssocDependencyBody
 90
        1
100
AcDbImpAssocDimDependencyBodyBase
 90
        1
  1
d22=10.3
100
AcDbAssocDimDependencyBody
 90
        1
  0
ASSOCDIMDEPENDENCYBODY
  5
38B
330
38A
100
AcDbAssocDependencyBody
 90
        1
100
AcDbImpAssocDimDependencyBodyBase
 90
        1
  1
d12=mdf_width
100
AcDbAssocDimDependencyBody
 90
        1
  0
ASSOCDIMDEPENDENCYBODY
  5
47A
330
479
100
AcDbAssocDependencyBody
 90
        1
100
AcDbImpAssocDimDependencyBodyBase
 90
        1
  1
d40=10
100
AcDbAssocDimDependencyBody
 90
        1
  0
ASSOCDIMDEPENDENCYBODY
  5
381
330
380
100
AcDbAssocDependencyBody
 90
        1
100
AcDbImpAssocDimDependencyBodyBase
 90
        1
  1
d10=mdf_width
100
AcDbAssocDimDependencyBody
 90
        1
  0
ASSOCDIMDEPENDENCYBODY
  5
475
330
474
100
AcDbAssocDependencyBody
 90
        1
100
AcDbImpAssocDimDependencyBodyBase
 90
        1
  1
d39=10
100
AcDbAssocDimDependencyBody
 90
        1
  0
ASSOCDIMDEPENDENCYBODY
  5
39E
330
39D
100
AcDbAssocDependencyBody
 90
        1
100
AcDbImpAssocDimDependencyBodyBase
 90
        1
  1
d14=mdf_width
100
AcDbAssocDimDependencyBody
 90
        1
  0
ASSOCDIMDEPENDENCYBODY
  5
3D0
330
3CF
100
AcDbAssocDependencyBody
 90
        1
100
AcDbImpAssocDimDependencyBodyBase
 90
        1
  1
d19=mdf_width
100
AcDbAssocDimDependencyBody
 90
        1
  0
ASSOCDIMDEPENDENCYBODY
  5
35E
330
35D
100
AcDbAssocDependencyBody
 90
        1
100
AcDbImpAssocDimDependencyBodyBase
 90
        1
  1
d3=mdf_width
100
AcDbAssocDimDependencyBody
 90
        1
  0
ASSOCDIMDEPENDENCYBODY
  5
42E
330
42D
100
AcDbAssocDependencyBody
 90
        1
100
AcDbImpAssocDimDependencyBodyBase
 90
        1
  1
d26=10.3
100
AcDbAssocDimDependencyBody
 90
        1
  0
ASSOCDIMDEPENDENCYBODY
  5
358
330
357
100
AcDbAssocDependencyBody
 90
        1
100
AcDbImpAssocDimDependencyBodyBase
 90
        1
  1
d2=pestaña
100
AcDbAssocDimDependencyBody
 90
        1
  0
ASSOCDIMDEPENDENCYBODY
  5
386
330
385
100
AcDbAssocDependencyBody
 90
        1
100
AcDbImpAssocDimDependencyBodyBase
 90
        1
  1
d11=mdf_width
100
AcDbAssocDimDependencyBody
 90
        1
  0
ASSOCDIMDEPENDENCYBODY
  5
3CB
330
3CA
100
AcDbAssocDependencyBody
 90
        1
100
AcDbImpAssocDimDependencyBodyBase
 90
        1
  1
d1=mdf_width
100
AcDbAssocDimDependencyBody
 90
        1
  0
ASSOCDIMDEPENDENCYBODY
  5
3AA
330
3A9
100
AcDbAssocDependencyBody
 90
        1
100
AcDbImpAssocDimDependencyBodyBase
 90
        1
  1
d16=mdf_width
100
AcDbAssocDimDependencyBody
 90
        1
  0
ASSOCDIMDEPENDENCYBODY
  5
3AF
330
3AE
100
AcDbAssocDependencyBody
 90
        1
100
AcDbImpAssocDimDependencyBodyBase
 90
        1
  1
d17=mdf_width
100
AcDbAssocDimDependencyBody
 90
        1
  0
ASSOCDIMDEPENDENCYBODY
  5
3A3
330
3A2
100
AcDbAssocDependencyBody
 90
        1
100
AcDbImpAssocDimDependencyBodyBase
 90
        1
  1
d15=mdf_width
100
AcDbAssocDimDependencyBody
 90
        1
  0
ASSOCDIMDEPENDENCYBODY
  5
44C
330
44B
100
AcDbAssocDependencyBody
 90
        1
100
AcDbImpAssocDimDependencyBodyBase
 90
        1
  1
d31=10
100
AcDbAssocDimDependencyBody
 90
        1
  0
ASSOCDIMDEPENDENCYBODY
  5
3BA
330
3B9
100
AcDbAssocDependencyBody
 90
        1
100
AcDbImpAssocDimDependencyBodyBase
 90
        1
  1
d18=mdf_width
100
AcDbAssocDimDependencyBody
 90
        1
  0
ASSOCDIMDEPENDENCYBODY
  5
3F3
330
3F2
100
AcDbAssocDependencyBody
 90
        1
100
AcDbImpAssocDimDependencyBodyBase
 90
        1
  1
d13=mdf_width
100
AcDbAssocDimDependencyBody
 90
        1
  0
ASSOCDIMDEPENDENCYBODY
  5
41A
330
419
100
AcDbAssocDependencyBody
 90
        1
100
AcDbImpAssocDimDependencyBodyBase
 90
        1
  1
d23=10.3
100
AcDbAssocDimDependencyBody
 90
        1
  0
ASSOCDIMDEPENDENCYBODY
  5
41F
330
41E
100
AcDbAssocDependencyBody
 90
        1
100
AcDbImpAssocDimDependencyBodyBase
 90
        1
  1
d24=10.3
100
AcDbAssocDimDependencyBody
 90
        1
  0
ASSOCDIMDEPENDENCYBODY
  5
424
330
423
100
AcDbAssocDependencyBody
 90
        1
100
AcDbImpAssocDimDependencyBodyBase
 90
        1
  1
d25=10.3
100
AcDbAssocDimDependencyBody
 90
        1
  0
ASSOCDIMDEPENDENCYBODY
  5
433
330
432
100
AcDbAssocDependencyBody
 90
        1
100
AcDbImpAssocDimDependencyBodyBase
 90
        1
  1
d27=10.3
100
AcDbAssocDimDependencyBody
 90
        1
  0
ASSOCDIMDEPENDENCYBODY
  5
438
330
437
100
AcDbAssocDependencyBody
 90
        1
100
AcDbImpAssocDimDependencyBodyBase
 90
        1
  1
d28=10.3
100
AcDbAssocDimDependencyBody
 90
        1
  0
ASSOCDIMDEPENDENCYBODY
  5
43D
330
43C
100
AcDbAssocDependencyBody
 90
        1
100
AcDbImpAssocDimDependencyBodyBase
 90
        1
  1
d29=10.3
100
AcDbAssocDimDependencyBody
 90
        1
  0
ASSOCDIMDEPENDENCYBODY
  5
442
330
441
100
AcDbAssocDependencyBody
 90
        1
100
AcDbImpAssocDimDependencyBodyBase
 90
        1
  1
d30=10.3
100
AcDbAssocDimDependencyBody
 90
        1
  0
ASSOCDIMDEPENDENCYBODY
  5
451
330
450
100
AcDbAssocDependencyBody
 90
        1
100
AcDbImpAssocDimDependencyBodyBase
 90
        1
  1
d32=10
100
AcDbAssocDimDependencyBody
 90
        1
  0
ASSOCDIMDEPENDENCYBODY
  5
457
330
456
100
AcDbAssocDependencyBody
 90
        1
100
AcDbImpAssocDimDependencyBodyBase
 90
        1
  1
d33=10
100
AcDbAssocDimDependencyBody
 90
        1
  0
ASSOCDIMDEPENDENCYBODY
  5
45C
330
45B
100
AcDbAssocDependencyBody
 90
        1
100
AcDbImpAssocDimDependencyBodyBase
 90
        1
  1
d34=10
100
AcDbAssocDimDependencyBody
 90
        1
  0
ASSOCDIMDEPENDENCYBODY
  5
466
330
465
100
AcDbAssocDependencyBody
 90
        1
100
AcDbImpAssocDimDependencyBodyBase
 90
        1
  1
d36=10
100
AcDbAssocDimDependencyBody
 90
        1
  0
ASSOCDIMDEPENDENCYBODY
  5
46B
330
46A
100
AcDbAssocDependencyBody
 90
        1
100
AcDbImpAssocDimDependencyBodyBase
 90
        1
  1
d37=10
100
AcDbAssocDimDependencyBody
 90
        1
  0
ASSOCDIMDEPENDENCYBODY
  5
470
330
46F
100
AcDbAssocDependencyBody
 90
        1
100
AcDbImpAssocDimDependencyBodyBase
 90
        1
  1
d38=10
100
AcDbAssocDimDependencyBody
 90
        1
  0
ENDSEC
  0
EOF
